Маленький мотылёк / Little Moth (Тао Пэн / Tao Peng) [2007, Китай, Драма, DVDRip] VO D.I.M.

Ответить на тему
 
Автор Сообщение

user ®

Стаж: 11 лет

Сообщений: 15151

Пост Пост: #1 от 30-Мар-2014 15:40

[Цитировать]

Маленький мотылёк / Little Moth
Страна: Китай
Жанр: Драма
Год выпуска: 2007
Продолжительность: 1:39:20
Перевод: Одноголосый закадровый D.I.M.
Cубтитры: нет
Режиссер: Тао Пэн / Tao Peng
В ролях: Хуэйхуэй Чжао / Huihui Zhao
Дэгунь Хан / Dequn Han
Цифа Хун / Qifa Hong
Цзелинь Сюй / Zelin Xu
Сяожун Цзэн / Xiaorong Zeng
Лэй Чжан / Lei Zhang
Описание: Жила-поживала 11-летняя девочка с мамой и папой.
Но мама умирает, а папа спивается и ему нет дела до дочери,
когда у неё отказывают ноги после болезни.
Супружеская пара покупает эту девочку,
которая уже не может ходить, чтобы использовать её как попрошайку,
и таким образом зарабатывать деньги...
Это восемьдесят седьмой фильм с моим переводом и озвучкой, выложенный здесь.
Сэмпл: http://multi-up.com/963191
Качество видео: DVDRip
Формат видео: AVI
Видео: 720*544(4:3), 29,970 fps, MPEG-4 Visual (XviD) ~ 847 kbps avg, 0.072 bit/pixel
Аудио: MPEG Audio Layer 3, 48000Hz, stereo, 128kbps

MediaInfo

Общее
Полное имя : D:\TORENT\РАЗДАЧИ (РИПЫ)\Little Moth.avi
Формат : AVI
Формат/Информация : Audio Video Interleave
Размер файла : 701 Мбайт
Продолжительность : 1 ч. 39 м.
Общий поток : 987 Кбит/сек
Программа кодирования : VirtualDubModRus 1.5.10.2 (build 2542/release)
Библиотека кодирования : VirtualDubMod build 2542/release
Видео
Идентификатор : 0
Формат : MPEG-4 Visual
Профиль формата : Advanced Simple@L5
Параметр BVOP формата : 1
Параметр QPel формата : Нет
Параметр GMC формата : Без точки перехода
Параметр матрицы формата : Выборочная
Идентификатор кодека : XVID
Идентификатор кодека/Подсказка : XviD
Продолжительность : 1 ч. 39 м.
Битрейт : 847 Кбит/сек
Ширина : 720 пикс.
Высота : 544 пикс.
Соотношение сторон : 4:3
Частота кадров : 29,970 кадр/сек
Цветовое пространство : YUV
Подвыборка цветности : 4:2:0
Битовая глубина : 8 бит
Тип развёртки : Прогрессивная
Метод сжатия : С потерями
Бит/(Пиксели*Кадры) : 0.072
Размер потока : 602 Мбайт (86%)
Библиотека кодирования : XviD 63
Аудио
Идентификатор : 1
Формат : MPEG Audio
Версия формата : Version 1
Профиль формата : Layer 3
Режим : Joint stereo
Расширение режима : MS Stereo
Идентификатор кодека : 55
Идентификатор кодека/Подсказка : MP3
Продолжительность : 1 ч. 39 м.
Вид битрейта : Постоянный
Битрейт : 128 Кбит/сек
Канал(ы) : 2 канала(ов)
Частота : 48,0 КГц
Метод сжатия : С потерями
Размер потока : 90,9 Мбайт (13%)
Выравнивание : Соединение по промежуткам
Продолжительность промежутка : 33 мс. (1,00 видеокадр)
Время предзагрузки промежутка : 504 ms
Язык : Russian

Скриншот c названием фильма

Скриншоты

Скачать

Скачать торрент! Маленький мотылёк / Little Moth (Тао Пэн / Tao Peng) [2007, Китай, Драма, DVDRip] VO D.I.M.

Как скачивать? · Что такое торрент? · Рейтинг и ограничения

Сайт не распространяет и не хранит электронные версии произведений, а лишь предоставляет доступ к создаваемому пользователями каталогу ссылок на торрент-файлы, которые содержат только списки хеш-сумм

[Профиль] [ЛС]
Показать сообщения:    
Ответить на тему

Текущее время: Сегодня 22:35

Часовой пояс: GMT + 4



Вы не можете начинать темы
Вы не можете отвечать на сообщения
Вы не можете редактировать свои сообщения
Вы не можете удалять свои сообщения
Вы не можете голосовать в опросах
Вы не можете прикреплять файлы к сообщениям
Вы не можете скачивать файлы