Раньше было другое время (Алексей Балабанов) [1987, драма, короткометражный, VHSRip]

Ответить на тему
 
Автор Сообщение

user ®

Стаж: 7 лет 7 месяцев

Сообщений: 20008

Пост Пост: #1 от 30-Мар-2014 00:45

[Цитировать]

Раньше было другое время
Жанр: драма, короткометражный
Год выпуска: 1987
Продолжительность: 00:17:37
Режиссёр: Алексей Балабанов
В ролях: Надежда Озерова, Игорь Незлобинский, Виктор Шавруков, Евгений Гаренбург, Вячеслав Бутусов, Виктор Комаров, Дмитрий Усецкий, Настя Полева.
Описание: История, разворачивающаяся в течение одних суток, рассказывает о мужской подлости и вечно нелегкой женской доле… Действие происходит на фоне первых хитов молодой группы «Nautilus Pompilios»..
Первая профессиональная работа кинорежиссёра Алексея Балабанова, в то время работавшего ассистентом режиссера на Свердловской киностудии. Фильм был учебной работой, снятой во время учебы на Высших курсах сценаристов и режиссёров.
Качество видео: VHSRip
Формат видео: AVI
Видео: 640x352 (1.82:1), 25 fps, XviD build 50 ~2071 kbps avg, 0.37 bit/pixel
Аудио: 48 kHz, MPEG Layer 3, 2 ch, ~224.00 kbps avg

MediaInfo

General
Complete name : M:\Раньше было другое время.avi
Format : AVI
Format/Info : Audio Video Interleave
File size : 291 MiB
Duration : 17mn 37s
Overall bit rate : 2 305 Kbps
Writing application : VirtualDubMod 1.5.10.3 | www.virtualdub-fr.org || (build 2550/release)
Writing library : VirtualDub build 29808/release
Video
ID : 0
Format : MPEG-4 Visual
Format profile : Advanced Simple@L5
Format settings, BVOP : Yes
Format settings, QPel : No
Format settings, GMC : No warppoints
Format settings, Matrix : Default (MPEG)
Codec ID : XVID
Codec ID/Hint : XviD
Duration : 17mn 37s
Bit rate : 2 071 Kbps
Width : 640 pixels
Height : 352 pixels
Display aspect ratio : 16:9
Frame rate : 25.000 fps
Resolution : 8 bits
Colorimetry : 4:2:0
Scan type : Progressive
Bits/(Pixel*Frame) : 0.368
Stream size : 261 MiB (90%)
Writing library : XviD 1.2.1 (UTC 2008-12-04)
Audio
ID : 1
Format : MPEG Audio
Format version : Version 1
Format profile : Layer 3
Mode : Joint stereo
Format_Settings_ModeExtension : MS Stereo
Codec ID : 55
Codec ID/Hint : MP3
Duration : 17mn 37s
Bit rate mode : Constant
Bit rate : 224 Kbps
Channel(s) : 2 channels
Sampling rate : 48.0 KHz
Stream size : 28.2 MiB (10%)
Alignment : Aligned on interleaves
Interleave, duration : 40 ms (1.00 video frame)
Interleave, preload duration : 504 ms
Writing library : LAMEЄЄЄ

Скриншот c названием фильма

Скриншоты

Скачать

Скачать торрент!

Как скачивать? · Что такое торрент? · Рейтинг и ограничения

Сайт не распространяет и не хранит электронные версии произведений, а лишь предоставляет доступ к создаваемому пользователями каталогу ссылок на торрент-файлы, которые содержат только списки хеш-сумм

[Профиль] [ЛС]
Показать сообщения:    
Ответить на тему

Текущее время: Сегодня 14:33

Часовой пояс: GMT + 4



Вы не можете начинать темы
Вы не можете отвечать на сообщения
Вы не можете редактировать свои сообщения
Вы не можете удалять свои сообщения
Вы не можете голосовать в опросах
Вы не можете прикреплять файлы к сообщениям
Вы не можете скачивать файлы