Прости, спасибо / Sorry, Thanks (Лим Сун-Рё / Lim Soon-rye, О Чжум-Кюн / Oh Jeom-gyoon, Пак Хын-Сик / Park Heung-shik, Сон Иль-Гон / Song Il-gon) [2011, Южная Корея, Драма, DVDRip] VO D.I.M.

Ответить на тему
 
Автор Сообщение

user ®

Стаж: 13 лет

Сообщений: 15071

Пост Пост: #1 от 29-Мар-2014 18:25

[Цитировать]

Прости, спасибо / Sorry, Thanks
Страна: Южная Корея
Жанр: Драма
Год выпуска: 2011
Продолжительность: 01:55:50
Перевод: Одноголосый закадровый D.I.M.
Cубтитры: нет
Режиссер: Лим Сун-Рё / Lim Soon-rye, О Чжум-Кюн / Oh Jeom-gyoon,
Пак Хын-Сик / Park Heung-shik, Сон Иль-Гон / Song Il-gon
В ролях: Ким Чжи-Хо / Kim Ji-ho
Со Тэ-Хва / Seo Tae-hwa
Ан Со-Хён / Ahn Seo-hyeon
Ким Ён-Мин / Kim Yeong-min
Описание: Фильм состоит из четырёх историй снятых разными режиссёрами.
Четыре истории об отношениях животных и людей.
О том, что любому живому существу нужна любовь...
Это восемьдесят второй фильм с моим переводом и озвучкой, выложенный здесь.
Любители душевного кино могут найти для себя что-то интересное.
Сэмпл: http://multi-up.com/962907
Качество видео: DVDRip
Формат видео: AVI
Видео: 720*384 (16:9), 29,970 fps, MPEG-4 Visual (XviD) ~ 1552 kbps avg, 0.187 bit/pixel
Аудио: MPEG Audio Layer 3, 48000Hz, stereo, 128kbps

MediaInfo

Общее
Полное имя : D:\TORENT\РАЗДАЧИ (РИПЫ)\SORRY,THANKS.avi
Формат : AVI
Формат/Информация : Audio Video Interleave
Размер файла : 1,37 Гбайт
Продолжительность : 1 ч. 55 м.
Общий поток : 1692 Кбит/сек
Программа кодирования : VirtualDubModRus 1.5.10.2 (build 2542/release)
Библиотека кодирования : VirtualDubMod build 2542/release
Видео
Идентификатор : 0
Формат : MPEG-4 Visual
Профиль формата : Advanced Simple@L5
Параметр BVOP формата : 1
Параметр QPel формата : Нет
Параметр GMC формата : Без точки перехода
Параметр матрицы формата : Выборочная
Идентификатор кодека : XVID
Идентификатор кодека/Подсказка : XviD
Продолжительность : 1 ч. 55 м.
Битрейт : 1552 Кбит/сек
Ширина : 720 пикс.
Высота : 384 пикс.
Соотношение сторон : 1,875
Частота кадров : 29,970 кадр/сек
Цветовое пространство : YUV
Подвыборка цветности : 4:2:0
Битовая глубина : 8 бит
Тип развёртки : Прогрессивная
Метод сжатия : С потерями
Бит/(Пиксели*Кадры) : 0.187
Размер потока : 1,26 Гбайт (92%)
Библиотека кодирования : XviD 63
Аудио
Идентификатор : 1
Формат : MPEG Audio
Версия формата : Version 1
Профиль формата : Layer 3
Режим : Joint stereo
Расширение режима : MS Stereo
Идентификатор кодека : 55
Идентификатор кодека/Подсказка : MP3
Продолжительность : 1 ч. 55 м.
Вид битрейта : Постоянный
Битрейт : 128 Кбит/сек
Канал(ы) : 2 канала(ов)
Частота : 48,0 КГц
Метод сжатия : С потерями
Размер потока : 106 Мбайт (8%)
Выравнивание : Соединение по промежуткам
Продолжительность промежутка : 33 мс. (1,00 видеокадр)
Время предзагрузки промежутка : 504 ms
Библиотека кодирования : LAME3.98.2ЄЄЄЄЄЄЄЄЄЄ
Язык : Russian

Скриншот c названием фильма

Скриншоты

Скачать

Скачать торрент! Прости, спасибо / Sorry, Thanks (Лим Сун-Рё / Lim Soon-rye, О Чжум-Кюн / Oh Jeom-gyoon, Пак Хын-Сик / Park Heung-shik, Сон Иль-Гон / Song Il-gon) [2011, Южная Корея, Драма, DVDRip] VO D.I.M.

Как скачивать? · Что такое торрент? · Рейтинг и ограничения

Сайт не распространяет и не хранит электронные версии произведений, а лишь предоставляет доступ к создаваемому пользователями каталогу ссылок на торрент-файлы, которые содержат только списки хеш-сумм

[Профиль] [ЛС]
Показать сообщения:    
Ответить на тему

Текущее время: Сегодня 20:36

Часовой пояс: GMT + 4



Вы не можете начинать темы
Вы не можете отвечать на сообщения
Вы не можете редактировать свои сообщения
Вы не можете удалять свои сообщения
Вы не можете голосовать в опросах
Вы не можете прикреплять файлы к сообщениям
Вы не можете скачивать файлы