Молочница / Однажды, когда вы прочтёте / The Milkwoman (Акира Огата / Akira Ogata) [2005, Япония, Драма, мелодрама, DVDRip] VO D.I.M.

Ответить на тему
 
Автор Сообщение

user ®

Стаж: 11 лет

Сообщений: 15151

Пост Пост: #1 от 29-Мар-2014 18:25

[Цитировать]

Молочница / Однажды, когда вы прочтёте / The Milkwoman
Страна: Япония
Жанр: Драма, мелодрама
Год выпуска: 2005
Продолжительность: 02:06:40
Перевод: Одноголосый закадровый D.I.M.
Cубтитры: нет
Режиссер: Акира Огата / Akira Ogata
В ролях: Тэруюки Кагава / Teruyuki Kagawa
Иттоку Кисибэ / Ittoku Kishibe
Акико Нисина / Akiko Nishina
Юко Танака / Yuko Tanaka
Сава Судзуки / Sawa Suzuki
Мисако Ватанабэ / Misako Watanabe
Описание: Незамужняя Минако разносит молоко, а закончив эту работу,
спешит в супермаркет, чтобы встать за кассу.
Вечера она проводит дома за книгами, которые она собрала
в большом количестве. Кайта, служащий в отделе социальной защиты в мэрии,
ухаживает за женой, больной раком. Давным-давно, ещё в школьные годы,
Минако и Кайта были влюблены друг в друга, но из-за одного
несчастного случая отдалились. И всё же Минако продолжала думать о Кайте.
Так, затаив любовь в глубинах своей души, она провела 30 лет.
Судьбы одинокой, потерянной Минако и отказавшегося от неё Кайты,
который продолжает жить с женой, переплетаются причудливым образом.
Фильм о настоящей любви, которая дождалась героев в зрелые годы.
Это восемьдесят третий фильм с моим переводом и озвучкой, выложенный здесь.
Сэмпл: http://multi-up.com/962913
Качество видео: DVDRip
Формат видео: AVI
Видео: 720*400 (16:9), 23,976 fps, MPEG-4 Visual (XviD) ~ 1410 kbps avg, 0.204 bit/pixel
Аудио: MPEG Audio Layer 3, 48000Hz, stereo, 128kbps

MediaInfo

Общее
Полное имя : D:\TORENT\РАЗДАЧИ (РИПЫ)\The Milkwoman.avi
Формат : AVI
Формат/Информация : Audio Video Interleave
Размер файла : 1,37 Гбайт
Продолжительность : 2 ч. 6 м.
Общий поток : 1547 Кбит/сек
Программа кодирования : VirtualDubModRus 1.5.10.2 (build 2542/release)
Библиотека кодирования : VirtualDubMod build 2542/release
Видео
Идентификатор : 0
Формат : MPEG-4 Visual
Профиль формата : Advanced Simple@L5
Параметр BVOP формата : 1
Параметр QPel формата : Нет
Параметр GMC формата : Без точки перехода
Параметр матрицы формата : Выборочная
Идентификатор кодека : XVID
Идентификатор кодека/Подсказка : XviD
Продолжительность : 2 ч. 6 м.
Битрейт : 1410 Кбит/сек
Ширина : 720 пикс.
Высота : 400 пикс.
Соотношение сторон : 16:9
Частота кадров : 23,976 кадр/сек
Цветовое пространство : YUV
Подвыборка цветности : 4:2:0
Битовая глубина : 8 бит
Тип развёртки : Прогрессивная
Метод сжатия : С потерями
Бит/(Пиксели*Кадры) : 0.204
Размер потока : 1,25 Гбайт (91%)
Библиотека кодирования : XviD 63
Аудио
Идентификатор : 1
Формат : MPEG Audio
Версия формата : Version 1
Профиль формата : Layer 3
Режим : Joint stereo
Идентификатор кодека : 55
Идентификатор кодека/Подсказка : MP3
Продолжительность : 2 ч. 6 м.
Вид битрейта : Постоянный
Битрейт : 128 Кбит/сек
Канал(ы) : 2 канала(ов)
Частота : 48,0 КГц
Метод сжатия : С потерями
Размер потока : 116 Мбайт (8%)
Выравнивание : Соединение по промежуткам
Продолжительность промежутка : 42 мс. (1,00 видеокадр)
Время предзагрузки промежутка : 504 ms
Библиотека кодирования : LAME3.98r
Настройки программы : -m j -V 4 -q 2 -lowpass 17 -b 128
Язык : Russian

Скриншот c названием фильма

Скриншоты

Скачать

Скачать торрент! Молочница / Однажды, когда вы прочтёте / The Milkwoman (Акира Огата / Akira Ogata) [2005, Япония, Драма, мелодрама, DVDRip] VO D.I.M.

Как скачивать? · Что такое торрент? · Рейтинг и ограничения

Сайт не распространяет и не хранит электронные версии произведений, а лишь предоставляет доступ к создаваемому пользователями каталогу ссылок на торрент-файлы, которые содержат только списки хеш-сумм

[Профиль] [ЛС]
Показать сообщения:    
Ответить на тему

Текущее время: Сегодня 13:46

Часовой пояс: GMT + 4



Вы не можете начинать темы
Вы не можете отвечать на сообщения
Вы не можете редактировать свои сообщения
Вы не можете удалять свои сообщения
Вы не можете голосовать в опросах
Вы не можете прикреплять файлы к сообщениям
Вы не можете скачивать файлы