Чёрно-белая фотография / No. 89 Shimen Road (Шу Хаолунь / Haolun Shu) [2010, Китай, Драма, DVDRip] VO D.I.M.

Ответить на тему
 
Автор Сообщение

user ®

Стаж: 11 лет

Сообщений: 15151

Пост Пост: #1 от 29-Мар-2014 18:25

[Цитировать]

Чёрно-белая фотография / No. 89 Shimen Road
Страна: Китай
Жанр: Драма
Год выпуска: 2010
Продолжительность: 01:23:40
Перевод: Одноголосый закадровый D.I.M.
Cубтитры: нет
Режиссер: Шу Хаолунь / Haolun Shu
В ролях: Эвень Чен / Ewen Cheng
Сюйфей Чжай / Xufei Zhai
Лили Ван / Lili Wang
Шоуцинь Сюй / Shouqin Xu
Ян Сяо / Yang Xiao
Описание: Конец 80-ых годов. 16-летний Сяоли взрослеет в окружении соседей и своего деда.
Сяоли очень увлечён фотографией и мечтает стать китайским Брессоном.
Его лучшая подруга - Ланьми, на пару лет старше его.
Она медленно отдаляется от него, привлечённая новыми соблазнами,
которые появляются, когда Китай становится
открытым для иностранных товаров и бизнесменов.
Но события 89-го года заставляют Сяоли повзрослеть
и бросить свои детские мечтания.
Окружающий мир для него уже никогда не будет прежним...
Это восемьдесят четвёртый фильм с моим переводом и озвучкой, выложенный здесь.
Сэмпл: http://multi-up.com/962919
Качество видео: DVDRip
Формат видео: AVI
Видео: 720*416 (16:9), 25,000 fps, MPEG-4 Visual (XviD) ~ 2203 kbps avg, 0.294 bit/pixel
Аудио: MPEG Audio Layer 3, 48000Hz, stereo, 128kbps

MediaInfo

Общее
Полное имя : D:\TORENT\РАЗДАЧИ (РИПЫ)\NO 89 SHIMEN ROAD.avi
Формат : AVI
Формат/Информация : Audio Video Interleave
Размер файла : 1,37 Гбайт
Продолжительность : 1 ч. 23 м.
Общий поток : 2340 Кбит/сек
Программа кодирования : VirtualDubModRus 1.5.10.2 (build 2542/release)
Библиотека кодирования : VirtualDubMod build 2542/release
Видео
Идентификатор : 0
Формат : MPEG-4 Visual
Профиль формата : Advanced Simple@L5
Параметр BVOP формата : 1
Параметр QPel формата : Нет
Параметр GMC формата : Без точки перехода
Параметр матрицы формата : Выборочная
Идентификатор кодека : XVID
Идентификатор кодека/Подсказка : XviD
Продолжительность : 1 ч. 23 м.
Битрейт : 2203 Кбит/сек
Ширина : 720 пикс.
Высота : 416 пикс.
Соотношение сторон : 16:9
Частота кадров : 25,000 кадр/сек
Цветовое пространство : YUV
Подвыборка цветности : 4:2:0
Битовая глубина : 8 бит
Тип развёртки : Прогрессивная
Метод сжатия : С потерями
Бит/(Пиксели*Кадры) : 0.294
Размер потока : 1,29 Гбайт (94%)
Библиотека кодирования : XviD 63
Аудио
Идентификатор : 1
Формат : MPEG Audio
Версия формата : Version 1
Профиль формата : Layer 3
Режим : Joint stereo
Расширение режима : MS Stereo
Идентификатор кодека : 55
Идентификатор кодека/Подсказка : MP3
Продолжительность : 1 ч. 23 м.
Вид битрейта : Постоянный
Битрейт : 128 Кбит/сек
Канал(ы) : 2 канала(ов)
Частота : 48,0 КГц
Метод сжатия : С потерями
Размер потока : 76,6 Мбайт (5%)
Выравнивание : Соединение по промежуткам
Продолжительность промежутка : 40 мс. (1,00 видеокадр)
Время предзагрузки промежутка : 504 ms
Библиотека кодирования : LAME3.98r
Настройки программы : -m j -V 4 -q 2 -lowpass 17 -b 128
Язык : Russian

Скриншот c названием фильма

Скриншоты

Скачать

Скачать торрент! Чёрно-белая фотография / No. 89 Shimen Road (Шу Хаолунь / Haolun Shu) [2010, Китай, Драма, DVDRip] VO D.I.M.

Как скачивать? · Что такое торрент? · Рейтинг и ограничения

Сайт не распространяет и не хранит электронные версии произведений, а лишь предоставляет доступ к создаваемому пользователями каталогу ссылок на торрент-файлы, которые содержат только списки хеш-сумм

[Профиль] [ЛС]
Показать сообщения:    
Ответить на тему

Текущее время: Сегодня 17:32

Часовой пояс: GMT + 4



Вы не можете начинать темы
Вы не можете отвечать на сообщения
Вы не можете редактировать свои сообщения
Вы не можете удалять свои сообщения
Вы не можете голосовать в опросах
Вы не можете прикреплять файлы к сообщениям
Вы не можете скачивать файлы