Мама каждый день / Kaasan Mom\'s Life (Сэйтаро Кобаяси / Seitaro Kobayashi) [2011, Япония, Драма, DVDRip] VO D.I.M.

Ответить на тему
 
Автор Сообщение

user ®

Стаж: 11 лет

Сообщений: 15151

Пост Пост: #1 от 29-Мар-2014 18:25

[Цитировать]

Мама каждый день / Kaasan Mom's Life
Страна: Япония
Жанр: Драма
Год выпуска: 2011
Продолжительность: 01:54:04
Перевод: Одноголосый закадровый D.I.M.
Cубтитры: нет
Режиссер: Сэйтаро Кобаяси / Seitaro Kobayashi
В ролях: Киёко Коидзуми / Kyoko Koizumi
Масатоси Нагасе / Masatoshi Nagase
Синта Фурута / Shinta Furuta
Акира Хокута / Akira Hokuto
Мау Кониси / Mau Konishi
Кёсуке Ябэ / Kosuke Yabe
Описание: Риеко Саибара, мангака, у неё двое детей и муж-алкоголик.
В один прекрасный момент она больше не выдерживает
и разводится со своим мужем и выгоняет его из дома.
Её муж - бывший военный фотограф,
на которого очень сильно повлияли военные события.
Но он любит своих детей. Риеко всё таки соглашается
принять обратно своего мужа, если тот окончательно бросит пить.
Сдержит ли он своё обещание, или вернётся обратно к пьянкам...
(Это ещё одна версия фильма "Я вернусь, когда протрезвею")
Это восемьдесят четвёртый фильм с моим переводом и озвучкой, выложенный здесь.
Сэмпл: http://multi-up.com/962921
Качество видео: DVDRip
Формат видео: AVI
Видео: 720*400 (16:9), 23,976 fps, MPEG-4 Visual (XviD) ~ 951 kbps avg, 0.138 bit/pixel
Аудио: MPEG Audio Layer 3, 48000Hz, stereo, 128kbps

MediaInfo

Общее
Полное имя : D:\TORENT\РАЗДАЧИ (РИПЫ)\KAASAN MOMS LIFE.avi
Формат : AVI
Формат/Информация : Audio Video Interleave
Размер файла : 888 Мбайт
Продолжительность : 1 ч. 54 м.
Общий поток : 1088 Кбит/сек
Программа кодирования : VirtualDubModRus 1.5.10.2 (build 2542/release)
Библиотека кодирования : VirtualDubMod build 2542/release
Видео
Идентификатор : 0
Формат : MPEG-4 Visual
Профиль формата : Advanced Simple@L5
Параметр BVOP формата : 1
Параметр QPel формата : Нет
Параметр GMC формата : Без точки перехода
Параметр матрицы формата : Выборочная
Идентификатор кодека : XVID
Идентификатор кодека/Подсказка : XviD
Продолжительность : 1 ч. 54 м.
Битрейт : 951 Кбит/сек
Ширина : 720 пикс.
Высота : 400 пикс.
Соотношение сторон : 16:9
Частота кадров : 23,976 кадр/сек
Цветовое пространство : YUV
Подвыборка цветности : 4:2:0
Битовая глубина : 8 бит
Тип развёртки : Прогрессивная
Метод сжатия : С потерями
Бит/(Пиксели*Кадры) : 0.138
Размер потока : 776 Мбайт (87%)
Библиотека кодирования : XviD 63
Аудио
Идентификатор : 1
Формат : MPEG Audio
Версия формата : Version 1
Профиль формата : Layer 3
Режим : Joint stereo
Идентификатор кодека : 55
Идентификатор кодека/Подсказка : MP3
Продолжительность : 1 ч. 54 м.
Вид битрейта : Постоянный
Битрейт : 128 Кбит/сек
Канал(ы) : 2 канала(ов)
Частота : 48,0 КГц
Метод сжатия : С потерями
Размер потока : 104 Мбайт (12%)
Выравнивание : Соединение по промежуткам
Продолжительность промежутка : 42 мс. (1,00 видеокадр)
Время предзагрузки промежутка : 504 ms
Библиотека кодирования : LAME3.98.2ЄЄЄЄЄЄЄЄЄЄ
Язык : Russian

Скриншот c названием фильма

Скриншоты

Скачать

Скачать торрент! Мама каждый день / Kaasan Mom\'s Life (Сэйтаро Кобаяси / Seitaro Kobayashi) [2011, Япония, Драма, DVDRip] VO D.I.M.

Как скачивать? · Что такое торрент? · Рейтинг и ограничения

Сайт не распространяет и не хранит электронные версии произведений, а лишь предоставляет доступ к создаваемому пользователями каталогу ссылок на торрент-файлы, которые содержат только списки хеш-сумм

[Профиль] [ЛС]
Показать сообщения:    
Ответить на тему

Текущее время: Сегодня 04:52

Часовой пояс: GMT + 4



Вы не можете начинать темы
Вы не можете отвечать на сообщения
Вы не можете редактировать свои сообщения
Вы не можете удалять свои сообщения
Вы не можете голосовать в опросах
Вы не можете прикреплять файлы к сообщениям
Вы не можете скачивать файлы