Друг 2: Наследие / Friend 2 / Friend, The Great Legacy / Chingoo 2 (Гвак Гён Тхэк / Kwak Gyeong-taek) [2013, Южная Корея, криминал, драма, HDRip] DVO

Ответить на тему
 
Автор Сообщение

user ®

Стаж: 11 лет

Сообщений: 15151

Пост Пост: #1 от 29-Мар-2014 02:00

[Цитировать]

Друг 2: Наследие / Friend 2 / Friend, The Great Legacy / Chingoo 2
Страна: Южная Корея
Жанр: криминал, драма
Год выпуска: 2013
Продолжительность: 02:01:13.-Перевод: Любительский (двухголосый закадровый) Ольга Гринтиева и Франк Цветков по субтитрам Эльзы Нордж
Рип: Altruist
Звук: Ольга Гринтиева
Cубтитры: нет
Оригинальная аудиодорожка: нет-Режиссер: Гвак Гён Тхэк / Kwak Gyeong-taek
В ролях: Ю О Сон, Чжу Чжин Мо, Ким У Бин-Описание: Сун-Хун(Ким У Бин) воспитывался матерью-одиночкой и совершенно не помнит своего отца. Поскольку почти все друзья его матери были гангстерами, он и сам, повзрослев, стал бандитом и, в конце концов, оказался в тюрьме. Вскоре он узнаёт от своей матери, что здесь уже 17 лет находится в заключении его отец – Джун-Сок. Отец и сын почти одновременно выходят на свободу и становятся соратниками в борьбе за контроль над бандой, которой когда-то руководил Джун-Сок. Но ни один из них не знает, что, на самом деле, Джун-Сок много лет назад «заказал» убийство настоящего отца Сун-Хуна...- -Релиз группы
-Качество видео: HDRip (720p)
Формат видео: AVI
Видео: XviD, 720x400 (1.80:1), 23.976 fps, 1527 kbps avg, 0.22 bit/pixel
Аудио: Русский MPEG layer 3, 192 kbps-

MediaInfo

Format : AVI
Format/Info : Audio Video Interleave
File size : 1.46 GiB
Duration : 2h 1mn
Overall bit rate : 1 729 Kbps
Writing application : VirtualDubMod 1.5.10.2 (build 2540/release)
Writing library : VirtualDubMod build 2540/release
Video
ID : 0
Format : MPEG-4 Visual
Format profile : Advanced Simple@L5
Format settings, BVOP : 1
Format settings, QPel : No
Format settings, GMC : No warppoints
Format settings, Matrix : Custom
Codec ID : XVID
Codec ID/Hint : XviD
Duration : 2h 1mn
Bit rate : 1 528 Kbps
Width : 720 pixels
Height : 400 pixels
Display aspect ratio : 16:9
Frame rate : 23.976 fps
Color space : YUV
Chroma subsampling : 4:2:0
Bit depth : 8 bits
Scan type : Progressive
Compression mode : Lossy
Bits/(Pixel*Frame) : 0.221
Stream size : 1.29 GiB (88%)
Writing library : XviD 73
Audio
ID : 1
Format : MPEG Audio
Format version : Version 1
Format profile : Layer 3
Mode : Joint stereo
Codec ID : 55
Codec ID/Hint : MP3
Duration : 2h 1mn
Bit rate mode : Constant
Bit rate : 192 Kbps
Channel(s) : 2 channels
Sampling rate : 48.0 KHz
Compression mode : Lossy
Stream size : 166 MiB (11%)
Alignment : Aligned on interleaves
Interleave, duration : 42 ms (1.00 video frame)
Interleave, preload duration : 504 ms

Скриншот с названием

Скриншоты

Скачать

Скачать торрент! Друг 2: Наследие / Friend 2 / Friend, The Great Legacy / Chingoo 2 (Гвак Гён Тхэк / Kwak Gyeong-taek) [2013, Южная Корея, криминал, драма, HDRip] DVO

Как скачивать? · Что такое торрент? · Рейтинг и ограничения

Сайт не распространяет и не хранит электронные версии произведений, а лишь предоставляет доступ к создаваемому пользователями каталогу ссылок на торрент-файлы, которые содержат только списки хеш-сумм

[Профиль] [ЛС]
Показать сообщения:    
Ответить на тему

Текущее время: Сегодня 11:35

Часовой пояс: GMT + 4



Вы не можете начинать темы
Вы не можете отвечать на сообщения
Вы не можете редактировать свои сообщения
Вы не можете удалять свои сообщения
Вы не можете голосовать в опросах
Вы не можете прикреплять файлы к сообщениям
Вы не можете скачивать файлы