Меч из трости Затойчи / Zatoichis Cane Sword / Zatoichi tekka tabi (Кимиёши Ясуда / Kimiyoshi Yasuda) [1967, Япония, боевик, драма, приключения, HDRip] VO [RussianGuy27]

Ответить на тему
 
Автор Сообщение

user ®

Стаж: 11 лет

Сообщений: 15151

Пост Пост: #1 от 29-Мар-2014 02:00

[Цитировать]

Меч из трости Затойчи / Zatoichis Cane Sword / Zatoichi tekka tabiФильм 15- -Страна: Япония
Жанр: боевик, драма, приключения
Год выпуска: 1967
Продолжительность: 01:33:09-Перевод: Одноголосый закадровый [RussianGuy27]-Cубтитры: нет
Оригинальная аудиодорожка: нет
Режиссер: Кимиёши Ясуда / Kimiyoshi Yasuda
В ролях: Шинтаро Катсу, Сихо Фуджимура, Ёсихико Аояма, Макото Фудзита, Эйдзиро Тоно, Масуми Харукава, Дзюнитиро Ямасита, Рютаро Гоми...
Описание: Старый мастер вынужден ковать меч для мерзавца. Дочь убитого начальника мечтает, чтобы ее младший брат вернул земли отца. Злодей замышляет использовать талант Ичи в своих грязных целях. Затоичи, втянутый в этот клубок интриг, собирается во всем разобраться.
Качество видео: HDRip
Формат видео: AVI
Видео: MPEG-4 Visual at 2046 Кбит/сек; 720 x 304 (2.368) at 23.976 fps
Аудио: AC-3 at 192 Кбит/сек; 2 канала, 48,0 КГц
Релиз от -

MediaInfo

Общее
Полное имя : D:\Фильмы\Азиатские\Меч из трости Затойчи\Zatoichis Cane Sword.1967.HDRip.XviD.VO.1400MB. rip by [Assassin's Creed].avi
Формат : AVI
Формат/Информация : Audio Video Interleave
Размер файла : 1,46 Гбайт
Продолжительность : 1 ч. 33 м.
Общий поток : 2248 Кбит/сек
Программа кодирования : VirtualDubMod 1.5.10.3 | www.virtualdub-fr.org || (build 2550/release)
Библиотека кодирования : VirtualDubMod build 2550/release
Видео
Идентификатор : 0
Формат : MPEG-4 Visual
Профиль формата : Advanced Simple@L5
Параметр BVOP формата : 1
Параметр QPel формата : Нет
Параметр GMC формата : Без точки перехода
Параметр матрицы формата : Default (MPEG)
Идентификатор кодека : XVID
Идентификатор кодека/Подсказка : XviD
Продолжительность : 1 ч. 33 м.
Битрейт : 2046 Кбит/сек
Ширина : 720 пикселей
Высота : 304 пикселя
Соотношение сторон : 2,35:1
Частота кадров : 23,976 кадра/сек
Цветовое пространство : YUV
Субдискретизация насыщенности : 4:2:0
Битовая глубина : 8 бит
Тип развёртки : Прогрессивная
Метод сжатия : С потерями
Бит/(Пиксели*Кадры) : 0.390
Размер потока : 1,33 Гбайт (91%)
Библиотека кодирования : XviD 1.2.1 (UTC 2008-12-04)
Аудио
Идентификатор : 1
Формат : AC-3
Формат/Информация : Audio Coding 3
Расширение режима : CM (complete main)
Параметр Endianness формата : Big
Идентификатор кодека : 2000
Продолжительность : 1 ч. 33 м.
Вид битрейта : Постоянный
Битрейт : 192 Кбит/сек
Каналы : 2 канала
Расположение каналов : Front: L R
Частота : 48,0 КГц
Битовая глубина : 16 бит
Метод сжатия : С потерями
Размер потока : 128 Мбайт (9%)
Выравнивание : Разделение по промежуткам
Продолжительность промежутка : 42 мс. (1,00 видеокадр)
Время предзагрузки промежутка : 500 мс.

Скриншот c названием фильма

Скриншоты

Скачать

Скачать торрент! Меч из трости Затойчи / Zatoichis Cane Sword / Zatoichi tekka tabi (Кимиёши Ясуда / Kimiyoshi Yasuda) [1967, Япония, боевик, драма, приключения, HDRip] VO [RussianGuy27]

Как скачивать? · Что такое торрент? · Рейтинг и ограничения

Сайт не распространяет и не хранит электронные версии произведений, а лишь предоставляет доступ к создаваемому пользователями каталогу ссылок на торрент-файлы, которые содержат только списки хеш-сумм

[Профиль] [ЛС]
Показать сообщения:    
Ответить на тему

Текущее время: Сегодня 05:11

Часовой пояс: GMT + 4



Вы не можете начинать темы
Вы не можете отвечать на сообщения
Вы не можете редактировать свои сообщения
Вы не можете удалять свои сообщения
Вы не можете голосовать в опросах
Вы не можете прикреплять файлы к сообщениям
Вы не можете скачивать файлы