Усыновление / Lorie (Виджай Талвар / Vijay Talwar) [1984, Индия, Драма, мелодрама, DVDRip] MVO

Ответить на тему
 
Автор Сообщение

user ®

Стаж: 12 лет

Сообщений: 15092

Пост Пост: #1 от 29-Мар-2014 02:00

[Цитировать]

Усыновление / Lorie
-Страна: Индия
Жанр: Драма, мелодрама
Год выпуска: 1984
Продолжительность: 02:00:14-Перевод: Профессиональный (многоголосый закадровый)
Субтитры: Нет--Режиссер: Виджай Талвар / Vijay Talwar-В ролях: Шабана Азми, Фарукх Шейх, Сваруп Сампат, Сулабха Дешпанде, Насируддин Шах, Пареш Равал, Рохини Хатангади, Мадан Пури, Бина--Описание: Гита Мальхотра выходит замуж за любимого человека, хотя ее родители этот поступок не одобряют. Молодые счастливы вместе и ожидают в скором времени ребенка, но, к сожалению, случается непоправимое, и ребенка спасти не удается-- | --Качество видео: DVDRip
Исходник: DVD5 R1
Формат видео: AVI-Видео: XviD, 624x464, 23,976 fps, 770 Kbps
Аудио: 48 kHz, MPEG Layer 3, 1 ch, ~96.00 kbps--Риппер, сведение звука: soso4eg-- -
-
-

Скриншоты


-

MI

Общее
Полное имя : K:\Релизы\Usynovlenie.1984.DVDRip.XviD-soso4eg.avi
Формат : AVI
Формат/Информация : Audio Video Interleave
Размер файла : 753 Мбайт
Продолжительность : 2 ч. 0 м.
Общий поток : 875 Кбит/сек
Название фильма : Usynovlenie.1984.DVDRip.XviD-soso4eg
Программа кодирования : VirtualDubMod 1.5.10.3 | www.virtualdub-fr.org || (build 2550/release)
Видео
Идентификатор : 0
Формат : MPEG-4 Visual
Профиль формата : Advanced Simple@L5
Параметр BVOP формата : 1
Параметр QPel формата : Нет
Параметр GMC формата : Без точки перехода
Параметр матрицы формата : Default (H.263)
Идентификатор кодека : XVID
Идентификатор кодека/Подсказка : XviD
Продолжительность : 2 ч. 0 м.
Битрейт : 770 Кбит/сек
Ширина : 624 пикселя
Высота : 464 пикселя
Соотношение сторон : 4:3
Частота кадров : 23,976 кадра/сек
Цветовое пространство : YUV
Субдискретизация насыщенности : 4:2:0
Битовая глубина : 8 бит
Тип развёртки : Прогрессивная
Метод сжатия : С потерями
Бит/(Пиксели*Кадры) : 0.111
Размер потока : 662 Мбайт (88%)
Библиотека кодирования : XviD 1.2.1 (UTC 2008-12-04)
Аудио
Идентификатор : 1
Формат : MPEG Audio
Версия формата : Version 1
Профиль формата : Layer 3
Идентификатор кодека : 55
Идентификатор кодека/Подсказка : MP3
Продолжительность : 2 ч. 0 м.
Вид битрейта : Постоянный
Битрейт : 96,0 Кбит/сек
Каналы : 1 канал
Частота : 48,0 КГц
Метод сжатия : С потерями
Размер потока : 82,6 Мбайт (11%)
Выравнивание : Соединение по промежуткам
Продолжительность промежутка : 42 мс. (1,00 видеокадр)
Время предзагрузки промежутка : 504 мс.
Скачать

Скачать торрент! Усыновление / Lorie (Виджай Талвар / Vijay Talwar) [1984, Индия, Драма, мелодрама, DVDRip] MVO

Как скачивать? · Что такое торрент? · Рейтинг и ограничения

Сайт не распространяет и не хранит электронные версии произведений, а лишь предоставляет доступ к создаваемому пользователями каталогу ссылок на торрент-файлы, которые содержат только списки хеш-сумм

[Профиль] [ЛС]
Показать сообщения:    
Ответить на тему

Текущее время: Сегодня 03:12

Часовой пояс: GMT + 4



Вы не можете начинать темы
Вы не можете отвечать на сообщения
Вы не можете редактировать свои сообщения
Вы не можете удалять свои сообщения
Вы не можете голосовать в опросах
Вы не можете прикреплять файлы к сообщениям
Вы не можете скачивать файлы