Малыш кикбоксер / Kickboxer Kid (Little Kickboxer) (Герберт Lam / Herbert Lam) [1992, Гонконг, Спорт, восточные единоборства, DVDRip] VO + Original Ger

Ответить на тему
 
Автор Сообщение

user ®

Стаж: 13 лет

Сообщений: 15071

Пост Пост: #1 от 28-Мар-2014 08:30

[Цитировать]

Малыш кикбоксер / Kickboxer Kid (Little Kickboxer)
Страна: Гонконг
Жанр: Спорт, восточные единоборства
Год выпуска: 1992
Продолжительность: 1:26:11
Перевод: Одноголосый закадровый
Cубтитры: нет
Оригинальная аудиодорожка: немецкий дубляж
Режиссер: Герберт Lam / Herbert Lam

В ролях: Шон Ли (Tiger) Picheat, Джек Янг, Мишель Вонг, Синтия Грин, Энди Сэмом
Описание: Джой Кан в школе считался "ботаником", он не мог постоять за себя в школе, его мать запрещала ему заниматься боевыми искусствами, так как отец Джоя погиб на ринге, когда Джой был совсем маленьким.
Но всё неожиданно меняется после того, как бывший друг отца защищает Джоя и его друзей от грабителей в парке. Ему удаётся уговорить его мать, чтобы мальчик начал заниматься боевыми искусствами в его детской школе.
В процессе суровых тренировок у Джоя обнаружились необычайные способности к боевым искусствам.
Случайно Джой узнает, что в Гонконге должен состояться чемпионат всех стилей боевых искусств, в котором примет участие убийца его отца.
Юный герой, одержимый жаждой мести за смерть своего отца, с удвоенной энергией приступает к тренировкам, чтобы принять участие в турнире и наказать обидчика....

Доп. информация: Релиз:
Автор релиза: ukkond
Исходный материал c немецкой дорожкой DVD5 найден на забугорном сайте, русская дорожка взята с предыдущей раздачи -
[url=http://***/forum/viewtopic.php?t=4443040]http://***/forum/viewtopic.php?t=4443040[/url]
, рассинхрон устранил Minhers76, за что выражаю ему большую благодарность.
Сэмпл: http://multi-up.com/962474
Качество видео: DVDRip
Формат видео: AVI
Видео: 1.21 GB, 2013 Kbps, 25.0 fps, разрешение 720*448 (16:9), XVID = XVID Mpeg-4
Аудио: Аудио : 118 MB, 192 Kbps, 48000 Hz, 2 каналов, 0x2000 = AC-3 ACM Codec, русская дорожка Поддерживается
Аудио 2:Аудио : 118 MB, 192 Kbps, 48000 Hz, 1 каналов, 0x2000 = AC-3 ACM Codec, Поддерживается - Немецкий дубляж

MediaInfo

Формат : AVI
Формат/Информация : Audio Video Interleave
Размер файла : 1,44 Гбайт
Продолжительность : 1 ч. 26 м.
Общий поток : 2397 Кбит/сек
Программа кодирования : VirtualDubMod 1.5.10.2 (build 2540/release)
Библиотека кодирования : VirtualDubMod build 2540/release
Видео
Идентификатор : 0
Формат : MPEG-4 Visual
Профиль формата : Advanced Simple@L5
Параметр BVOP формата : 2
Параметр QPel формата : Нет
Параметр GMC формата : Без точки перехода
Параметр матрицы формата : Default (H.263)
Идентификатор кодека : XVID
Идентификатор кодека/Подсказка : XviD
Продолжительность : 1 ч. 26 м.
Битрейт : 1999 Кбит/сек
Ширина : 720 пикселей
Высота : 448 пикселей
Соотношение сторон : 16:10
Частота кадров : 25,000 кадров/сек
Цветовое пространство : YUV
Субдискретизация насыщенности : 4:2:0
Битовая глубина : 8 бит
Тип развёртки : Прогрессивная
Метод сжатия : С потерями
Бит/(Пиксели*Кадры) : 0.248
Размер потока : 1,20 Гбайт (83%)
Библиотека кодирования : XviD 64
Аудио #1
Идентификатор : 1
Формат : AC-3
Формат/Информация : Audio Coding 3
Расширение режима : CM (complete main)
Параметр Endianness формата : Big
Идентификатор кодека : 2000
Продолжительность : 1 ч. 26 м.
Вид битрейта : Постоянный
Битрейт : 192 Кбит/сек
Каналы : 2 канала
Расположение каналов : Front: L R
Частота : 48,0 КГц
Битовая глубина : 16 бит
Метод сжатия : С потерями
Размер потока : 118 Мбайт (8%)
Выравнивание : Разделение по промежуткам
Продолжительность промежутка : 40 мс. (1,00 видеокадр)
Время предзагрузки промежутка : 500 мс.
Аудио #2
Идентификатор : 2
Формат : AC-3
Формат/Информация : Audio Coding 3
Расширение режима : CM (complete main)
Параметр Endianness формата : Big
Идентификатор кодека : 2000
Продолжительность : 1 ч. 26 м.
Вид битрейта : Постоянный
Битрейт : 192 Кбит/сек
Каналы : 1 канал
Расположение каналов : Front: C
Частота : 48,0 КГц
Битовая глубина : 16 бит
Метод сжатия : С потерями
Размер потока : 118 Мбайт (8%)
Выравнивание : Разделение по промежуткам
Продолжительность промежутка : 40 мс. (1,00 видеокадр)
Время предзагрузки промежутка : 500 мс.

Скриншот c названием фильма

Скриншоты

Скачать

Скачать торрент! Малыш кикбоксер / Kickboxer Kid (Little Kickboxer) (Герберт Lam / Herbert Lam) [1992, Гонконг, Спорт, восточные единоборства, DVDRip] VO + Original Ger

Как скачивать? · Что такое торрент? · Рейтинг и ограничения

Сайт не распространяет и не хранит электронные версии произведений, а лишь предоставляет доступ к создаваемому пользователями каталогу ссылок на торрент-файлы, которые содержат только списки хеш-сумм

[Профиль] [ЛС]
Показать сообщения:    
Ответить на тему

Текущее время: Сегодня 17:29

Часовой пояс: GMT + 4



Вы не можете начинать темы
Вы не можете отвечать на сообщения
Вы не можете редактировать свои сообщения
Вы не можете удалять свои сообщения
Вы не можете голосовать в опросах
Вы не можете прикреплять файлы к сообщениям
Вы не можете скачивать файлы