Феи: Загадка Пиратского Острова / The Pirate Fairy (Пегги Холмс / Peggy Holmes) [2014, Мультфильм, Фэнтези, Детский, Приключения, HDRip] Dub + Eng

Ответить на тему
 
Автор Сообщение

user ®

Стаж: 13 лет

Сообщений: 15041

Пост Пост: #1 от 28-Мар-2014 00:35

[Цитировать]

Феи: Загадка Пиратского Острова / The Pirate Fairy
Страна: США
Жанр: Мультфильм, Фэнтези, Детский, Приключения
Продолжительность: 01:18:05
Год выпуска: 2014
Перевод: Профессиональный (дублированный)
Оригинал: английский
Русские субтитры: нет
Режиссёр: Пегги Холмс / Peggy Holmes
Роли озвучивали: Кристина Хендрикс, Мэй Уитман, Том Хиддлстон, Памела Адлон, Анджела Бартис, Меган Хилти, Люси Лью, Рэйвен, Джим Каммингс, Кевин Майкл Ричардсон
Описание: Феи — это маленькие существа природы, обладают особыми, волшебными способностями. Одной из таких есть, Динь — Динь, она родилась из первого смеха младенца с зонтиком одуванчика, они прилетели в Долину Фей, на волшебный остров Нетландия. Там юное создание перепробовала много чего, пока не узнала, что ее предназначение быть мастерицей. Динь — Динь, постоянно искала приключения, на свою голову. Ее подруги Иридесса — фея света, Розетта — садовая фея, фея всех животных и птиц — Фауна, также фея воды — Серебрянка, спасают горе подругу от нелепых ситуаций. Они помогают Динь — динь, разобраться во всем. И у фей новое приключение, все они оказались далеко от долины, на большом острове, раньше там никому из фей не доводилось быть.
Доп. информация:
Семпл: http://multi-up.com/962412
Качество: HDRip [рип с BDRip 720p]
Формат: AVI
Видео: XVID, 720x400 (16:9), 23,976 кадра/сек, 1724 Кбит/сек
Аудио: AC-3, 48,0 КГц (2 канала), 384 Кбит/сек Дубляж
Аудио 2: AC-3, 48,0 КГц (6 каналов), 384 Кбит/сек Оригинал
Субтитры: Отсутствуют

Подробные технические данные

Формат : AVIФормат/Информация : Audio Video InterleaveРазмер файла : 1,37 ГбайтПродолжительность : 1 ч. 18 м.Общий поток : 2505 Кбит/секПрограмма кодирования : VirtualDubMod 1.5.10.2 (build 2540/release)Библиотека кодирования : VirtualDubMod build 2540/release
ВидеоИдентификатор : 0Формат : MPEG-4 VisualПрофиль формата : Advanced Simple@L5Параметр BVOP формата : 2Параметр QPel формата : НетПараметр GMC формата : Без точки переходаПараметр матрицы формата : ВыборочнаяИдентификатор кодека : XVIDИдентификатор кодека/Подсказка : XviDПродолжительность : 1 ч. 18 м.Битрейт : 1724 Кбит/секШирина : 720 пикселейВысота : 400 пикселейСоотношение сторон : 16:9Частота кадров : 23,976 кадра/секЦветовое пространство : YUVСубдискретизация насыщенности : 4:2:0Битовая глубина : 8 битТип развёртки : ПрогрессивнаяМетод сжатия : С потерямиБит/(Пиксели*Кадры) : 0.250Размер потока : 963 Мбайт (69%)Библиотека кодирования : XviD 1.2.1 (UTC 2008-12-04)
Аудио #1Идентификатор : 1Формат : AC-3Формат/Информация : Audio Coding 3Расширение режима : CM (complete main)Параметр Endianness формата : BigИдентификатор кодека : 2000Продолжительность : 1 ч. 18 м.Вид битрейта : ПостоянныйБитрейт : 384 Кбит/секКаналы : 2 каналаРасположение каналов : Front: L RЧастота : 48,0 КГцБитовая глубина : 16 битМетод сжатия : С потерямиРазмер потока : 214 Мбайт (15%)Выравнивание : Разделение по промежуткамПродолжительность промежутка : 42 мс. (1,00 видеокадр)Время предзагрузки промежутка : 500 мс.
Аудио #2Идентификатор : 2Формат : AC-3Формат/Информация : Audio Coding 3Расширение режима : CM (complete main)Параметр Endianness формата : BigИдентификатор кодека : 2000Продолжительность : 1 ч. 18 м.Вид битрейта : ПостоянныйБитрейт : 384 Кбит/секКаналы : 6 каналовРасположение каналов : Front: L C R, Side: L R, LFEЧастота : 48,0 КГцБитовая глубина : 16 битМетод сжатия : С потерямиРазмер потока : 214 Мбайт (15%)Выравнивание : Разделение по промежуткамПродолжительность промежутка : 42 мс. (1,00 видеокадр)Время предзагрузки промежутка : 500 мс.

Скриншоты

Скачать

Скачать торрент! Феи: Загадка Пиратского Острова / The Pirate Fairy (Пегги Холмс / Peggy Holmes) [2014, Мультфильм, Фэнтези, Детский, Приключения, HDRip] Dub + Eng

Как скачивать? · Что такое торрент? · Рейтинг и ограничения

Сайт не распространяет и не хранит электронные версии произведений, а лишь предоставляет доступ к создаваемому пользователями каталогу ссылок на торрент-файлы, которые содержат только списки хеш-сумм

[Профиль] [ЛС]
Показать сообщения:    
Ответить на тему

Текущее время: Сегодня 22:47

Часовой пояс: GMT + 4



Вы не можете начинать темы
Вы не можете отвечать на сообщения
Вы не можете редактировать свои сообщения
Вы не можете удалять свои сообщения
Вы не можете голосовать в опросах
Вы не можете прикреплять файлы к сообщениям
Вы не можете скачивать файлы