Мои дорогие американцы / My Fellow Americans (Питер Сигал / Peter Segal) [1996, США, комедия, детектив, HDTVRip 720p] Dub + Original Eng

Ответить на тему
 
Автор Сообщение

user ®

Стаж: 7 лет 7 месяцев

Сообщений: 20008

Пост Пост: #1 от 27-Мар-2014 21:25

[Цитировать]

Мои дорогие американцы / My Fellow Americans
Страна: США
Студия: Peters Entertainment, Storyline Entertainment
Жанр: комедия, детектив
Год выпуска: 1996
Продолжительность: 01:41:12
Перевод: Профессиональный (дублированный)
Cубтитры: нет
Оригинальная аудиодорожка: английский
Режиссер: Питер Сигал / Peter Segal
В ролях: Джек Леммон, Джеймс Гарнер, Дэн Эйкройд, Джон Хёрд, Уилфорд Бримли, Лорен Бэколл, Села Уорд, Эверет МакГилл, Брэдли Уитфорд, Джеймс Ребхорн
Описание: В этом фильме два бывших президента США: Рассел Крамер и Мэттью Дуглас, которые терпеть не могут друг друга, оказываются вместе в пути. Когда скандал, назревающий в Белом доме, грозит скомпрометировать их обоих, они, пытаясь скрыться от сыщиков, сворачивают с проторенных маршрутов и попадают в обычную реальную жизнь американцев. И пока они доискиваются до сути заговора, экс-президенты узнают очень многое о стране, которая их выбирала — многое, о чем они и не подозревали.
Доп. информация: Спасибо за рип neni(MediaClub), исходником послужил HDTVRip1080 от HDClub.

Сэмпл
Тип релиза: HDTVRip 720p
Контейнер: MKV
Видео: MPEG4 AVC Video, H264, 16:9, 1280x720, 23.976 fps, 5038 kbps
Аудио: Russian (Dolby AC3, 6 ch, 448 kbps, 16 bits, 48.0 KHz) - дубляж
Аудио 2: English (Dolby AC3, 6 ch, 384 kbps, 16 bits, 48.0 KHz) - оригинал

MediaInfo

Общее
Уникальный идентификатор : 181646141933445778176286823239333411974 (0x88A7C63F49D1E2B5998A89ACB9CB7C86)
Полное имя : E:\1\Moi.dorogie.amerikanzy.1996.x264.HDTVRip720p.mkv
Формат : Matroska
Версия формата : Version 4 / Version 2
Размер файла : 4,15 Гбайт
Продолжительность : 1 ч. 41 м.
Общий поток : 5867 Кбит/сек
Дата кодирования : UTC 2014-03-27 03:31:30
Программа кодирования : mkvmerge v6.1.0 ('Old Devil') built on Mar 2 2013 14:32:37
Библиотека кодирования : libebml v1.3.0 + libmatroska v1.4.0
Видео
Идентификатор : 1
Формат : AVC
Формат/Информация : Advanced Video Codec
Профиль формата : High@L4.1
Параметр CABAC формата : Да
Параметр ReFrames формата : 6 кадров
Идентификатор кодека : V_MPEG4/ISO/AVC
Продолжительность : 1 ч. 41 м.
Битрейт : 5038 Кбит/сек
Ширина : 1280 пикселей
Высота : 720 пикселей
Соотношение сторон : 16:9
Режим частоты кадров : Постоянный
Частота кадров : 23,976 кадра/сек
Цветовое пространство : YUV
Субдискретизация насыщенности : 4:2:0
Битовая глубина : 8 бит
Тип развёртки : Прогрессивная
Бит/(Пиксели*Кадры) : 0.228
Размер потока : 3,48 Гбайт (84%)
Заголовок : Moi.dorogie.amerikanzy.1996.x264.HDTVRip(720p)-neni
Библиотека кодирования : x264 core 130 r2273 b3065e6
Настройки программы : cabac=1 / ref=6 / deblock=1:-3:-3 / analyse=0x3:0x113 / me=umh / subme=11 / psy=1 / psy_rd=1.00:0.10 / mixed_ref=1 / me_range=48 / chroma_me=1 / trellis=2 / 8x8dct=1 / cqm=0 / deadzone=21,11 / fast_pskip=0 / chroma_qp_offset=-3 / threads=9 / lookahead_threads=1 / sliced_threads=0 / nr=0 / decimate=0 / interlaced=0 / bluray_compat=0 / constrained_intra=0 / bframes=8 / b_pyramid=2 / b_adapt=2 / b_bias=0 / direct=3 / weightb=1 / open_gop=0 / weightp=2 / keyint=240 / keyint_min=23 / scenecut=40 / intra_refresh=0 / rc=2pass / mbtree=0 / bitrate=5038 / ratetol=1.0 / qcomp=0.60 / qpmin=0 / qpmax=69 / qpstep=4 / cplxblur=20.0 / qblur=0.5 / ip_ratio=1.40 / pb_ratio=1.30 / aq=1:1.00
Язык : English
Default : Да
Forced : Да
Аудио #1
Идентификатор : 2
Формат : AC-3
Формат/Информация : Audio Coding 3
Расширение режима : CM (complete main)
Параметр Endianness формата : Big
Идентификатор кодека : A_AC3
Продолжительность : 1 ч. 41 м.
Вид битрейта : Постоянный
Битрейт : 448 Кбит/сек
Каналы : 6 каналов
Расположение каналов : Front: L C R, Side: L R, LFE
Частота : 48,0 КГц
Битовая глубина : 16 бит
Метод сжатия : С потерями
Размер потока : 324 Мбайт (8%)
Заголовок : Russian: 48 kHz, AC3, 3/2 (L,C,R,l,r) + LFE ch, ~448.00 kbps avg |Дубляж|
Язык : Russian
Default : Да
Forced : Да
Аудио #2
Идентификатор : 3
Формат : AC-3
Формат/Информация : Audio Coding 3
Расширение режима : CM (complete main)
Параметр Endianness формата : Big
Идентификатор кодека : A_AC3
Продолжительность : 1 ч. 41 м.
Вид битрейта : Постоянный
Битрейт : 384 Кбит/сек
Каналы : 6 каналов
Расположение каналов : Front: L C R, Side: L R, LFE
Частота : 48,0 КГц
Битовая глубина : 16 бит
Метод сжатия : С потерями
Размер потока : 278 Мбайт (7%)
Заголовок : English: 48 kHz, AC3, 3/2 (L,C,R,l,r) + LFE ch, ~384.00 kbps avg
Язык : English
Default : Нет
Forced : Нет

Скриншоты

Скачать

Скачать торрент!

Как скачивать? · Что такое торрент? · Рейтинг и ограничения

Сайт не распространяет и не хранит электронные версии произведений, а лишь предоставляет доступ к создаваемому пользователями каталогу ссылок на торрент-файлы, которые содержат только списки хеш-сумм

[Профиль] [ЛС]
Показать сообщения:    
Ответить на тему

Текущее время: Сегодня 11:55

Часовой пояс: GMT + 4



Вы не можете начинать темы
Вы не можете отвечать на сообщения
Вы не можете редактировать свои сообщения
Вы не можете удалять свои сообщения
Вы не можете голосовать в опросах
Вы не можете прикреплять файлы к сообщениям
Вы не можете скачивать файлы