Беглянки (Юсуп Разыков) [2007, Романтическая комедия, DVDRip-AVC]

Ответить на тему
 
Автор Сообщение

user ®

Стаж: 7 лет 7 месяцев

Сообщений: 20008

Пост Пост: #1 от 27-Мар-2014 18:20

[Цитировать]

Беглянки
Жанр: Романтическая комедия
Год выпуска: 2007
Продолжительность: 01:35:43
--Режиссёр: Юсуп Разыков
Сценарий: Юсуп Разыков, Виктория Евсеева
В ролях:
Екатерина Гусева, Ирина Рахманова, Егор Бероев, Алексей Вертков, Алиса Гребенщикова, Павел Деревянко, Яна Есипович, Андрей Межулис, Кирилл Плетнев, Дмитрий Ратомский, Татьяна Аугшкап, Александр Макогон, Алексей Огурцов, Валерий Прохоров, Иван Рыжиков, Михаил Самохвалов
Описание:
Лиричная и веселая история о двух девушках, случайно встретившихся на шоссе. У каждой из них свои житейские проблемы: известная столичная телеведущая Аня (Екатерина Гусева) оказалась в центре скандала из-за кражи в аптеке, а внучка знаменитой деревенской ведьмы Нюра (Ирина Рахманова) навела порчу на соседку. Но объединяют двух беглянок не проблемы, а подбитая утка, которую они решают отвезти в заповедник. По дороге к ним присоединяется влюбчивый семинарист и крутые парни на джипе, разыскивающие беглянок… Девушки успевают поссориться и помириться, вляпаться во множество комических и даже немного трагических ситуаций и выйти из них сухими из воды вместе с уткой. Проведя вместе сутки на пыльной дороге, Аня с Нюрой находят единственно верное для себя решение судьбы...

--Качество: DVDRip-AVC
Формат: MKV
Видео: 720x552->1024x552 (1.85:1), 25 fps, 1724 Kbps
Аудио: Rus; AC3; 6ch; 448kbps; 48kHz

x264

Crop(0, 12, -0, -12)
Spline64Resize(720, 552)
...last pass...
avs4x264.exe: -L x264_64.exe --pass 2 --bitrate 1724 --preset medium --level 4.1 --ref 8 --deblock -2:-1 --merange 24 --bframes 10 --direct auto --b-adapt 2 --trellis 2 --no-fast-pskip --no-dct-decimate --psy-rd 1.00:0.20 --vbv-maxrate 17500 --vbv-bufsize 14000 --partitions p8x8,b8x8,i4x4,i8x8 --subme 10 --me umh --rc-lookahead 60 --sar 64:45 --stats "D:\Temp\0026.log" --output "D:\Temp\0026.264" "D:\Temp\0026.avs"
raw [info]: 720x552p 64:45 @ 25/1 fps (cfr)
x264 [info]: using SAR=64/45
x264 [info]: using cpu capabilities: MMX2 SSE2Fast SSEMisalign LZCNT
x264 [info]: profile High, level 4.1
x264 [info]: frame I:1007 Avg QP:16.65 size: 61725
x264 [info]: frame P:29688 Avg QP:20.11 size: 22397
x264 [info]: frame B:112883 Avg QP:23.16 size: 4518
x264 [info]: consecutive B-frames: 2.2% 3.2% 7.7% 6.7% 5.8% 69.2% 1.9% 0.7% 1.4% 0.5% 0.6%
x264 [info]: mb I I16..4: 10.2% 61.7% 28.1%
x264 [info]: mb P I16..4: 1.5% 11.5% 2.4% P16..4: 41.8% 22.3% 16.2% 0.0% 0.0% skip: 4.3%
x264 [info]: mb B I16..4: 0.2% 1.3% 0.2% B16..8: 37.4% 6.6% 1.6% direct: 5.3% skip:47.4% L0:39.4% L1:44.9% BI:15.7%
x264 [info]: 8x8 transform intra:72.8% inter:55.3%
x264 [info]: direct mvs spatial:97.4% temporal:2.6%
x264 [info]: coded y,uvDC,uvAC intra: 84.9% 78.7% 45.9% inter: 21.5% 19.5% 8.4%
x264 [info]: i16 v,h,dc,p: 29% 12% 15% 44%
x264 [info]: i8 v,h,dc,ddl,ddr,vr,hd,vl,hu: 20% 9% 10% 8% 9% 12% 8% 13% 10%
x264 [info]: i4 v,h,dc,ddl,ddr,vr,hd,vl,hu: 21% 8% 7% 8% 11% 14% 9% 12% 10%
x264 [info]: i8c dc,h,v,p: 38% 21% 25% 16%
x264 [info]: Weighted P-Frames: Y:4.3% UV:1.4%
x264 [info]: ref P L0: 43.5% 9.1% 19.3% 8.5% 6.8% 4.0% 4.7% 3.5% 0.6% 0.0%
x264 [info]: ref B L0: 76.0% 12.6% 4.9% 2.9% 2.0% 1.2% 0.5%
x264 [info]: ref B L1: 94.7% 5.3%
x264 [info]: kb/s:1723.18
x264 [total]: encoded 143578 frames, 12.57 fps, 1723.18 kb/s

MediaInfo

General
Complete name : Беглянки_2007.Poc.DVDRip-AVC.mkv
Format : Matroska
Format version : Version 2
File size : 1.45 GiB
Duration : 1h 35mn
Overall bit rate : 2 173 Kbps
Encoded date : UTC 2014-02-11 08:01:20
Writing application : mkvmerge v6.1.0 ('Old Devil') built on Mar 4 2013 09:10:42
Writing library : libebml v1.3.0 + libmatroska v1.4.0
Video
ID : 1
Format : AVC
Format/Info : Advanced Video Codec
Format profile : High@L4.1
Format settings, CABAC : Yes
Format settings, ReFrames : 8 frames
Codec ID : V_MPEG4/ISO/AVC
Duration : 1h 35mn
Bit rate : 1 724 Kbps
Width : 720 pixels
Height : 552 pixels
Display aspect ratio : 1.85:1
Frame rate mode : Constant
Frame rate : 25.000 fps
Color space : YUV
Chroma subsampling : 4:2:0
Bit depth : 8 bits
Scan type : Progressive
Bits/(Pixel*Frame) : 0.174
Stream size : 1.12 GiB (77%)
Writing library : x264 core 130 r2273 b3065e6
Encoding settings : cabac=1 / ref=8 / deblock=1:-2:-1 / analyse=0x3:0x113 / me=umh / subme=10 / psy=1 / psy_rd=1.00:0.20 / mixed_ref=1 / me_range=24 / chroma_me=1 / trellis=2 / 8x8dct=1 / cqm=0 / deadzone=21,11 / fast_pskip=0 / chroma_qp_offset=-3 / threads=6 / lookahead_threads=1 / sliced_threads=0 / nr=0 / decimate=0 / interlaced=0 / bluray_compat=0 / constrained_intra=0 / bframes=10 / b_pyramid=2 / b_adapt=2 / b_bias=0 / direct=3 / weightb=1 / open_gop=0 / weightp=2 / keyint=250 / keyint_min=25 / scenecut=40 / intra_refresh=0 / rc_lookahead=60 / rc=2pass / mbtree=1 / bitrate=1724 / ratetol=1.0 / qcomp=0.60 / qpmin=0 / qpmax=69 / qpstep=4 / cplxblur=20.0 / qblur=0.5 / vbv_maxrate=17500 / vbv_bufsize=14000 / nal_hrd=none / ip_ratio=1.40 / aq=1:1.00
Default : Yes
Forced : No
Audio
ID : 2
Format : AC-3
Format/Info : Audio Coding 3
Mode extension : CM (complete main)
Format settings, Endianness : Big
Codec ID : A_AC3
Duration : 1h 35mn
Bit rate mode : Constant
Bit rate : 448 Kbps
Channel(s) : 6 channels
Channel positions : Front: L C R, Side: L R, LFE
Sampling rate : 48.0 KHz
Bit depth : 16 bits
Compression mode : Lossy
Stream size : 307 MiB (21%)
Default : Yes
Forced : No

Скриншоты

Скачать

Скачать торрент!

Как скачивать? · Что такое торрент? · Рейтинг и ограничения

Сайт не распространяет и не хранит электронные версии произведений, а лишь предоставляет доступ к создаваемому пользователями каталогу ссылок на торрент-файлы, которые содержат только списки хеш-сумм

[Профиль] [ЛС]
Показать сообщения:    
Ответить на тему

Текущее время: Сегодня 18:09

Часовой пояс: GMT + 4



Вы не можете начинать темы
Вы не можете отвечать на сообщения
Вы не можете редактировать свои сообщения
Вы не можете удалять свои сообщения
Вы не можете голосовать в опросах
Вы не можете прикреплять файлы к сообщениям
Вы не можете скачивать файлы