Звено (Роман Романовский) [2012, триллер, DVDRip]

Ответить на тему
 
Автор Сообщение

user ®

Стаж: 7 лет 7 месяцев

Сообщений: 20008

Пост Пост: #1 от 27-Мар-2014 09:55

[Цитировать]

Звено
Жанр: триллер
Год выпуска: 2012
Продолжительность: 02:02:03
Режиссёр: Роман Романовский
В ролях: Кристина Казинская, Иван Оранский, Алексей Лунёв, Евгений Филичкин, Владимир Смирнов, Владимир Фролов, Валентин Голубенко, Вероника Амирханова, Виктор Полторацкий
Описание: Молодой ученый, пытаясь избежать срочной службы в химических войсках, выбирает альтернативную службу воспитателем в подмосковном детском доме, расположившемся в древней усадьбе. По странному стечению обстоятельств, несколько его предшественников на этой должности, странным образом погибали. Вскоре молодой человек понимает, что он попал в это место не случайно и, если он не вырвется из ловушки, в которую его заманили обстоятельства, то он станет следующим звеном в выстроенной кем-то цепи.
Сэмпл: http://multi-up.com/962281
Качество видео: DVDRip
Формат видео: AVI
Видео: DivX, 1506 Кбит/с, 720x400
Аудио: AC3, 2 ch, 192 Кбит/с

MediaInfo

I:\Звено\Zveno.avi
General
Complete name : I:\Звено\Zveno.avi
Format : AVI
Format/Info : Audio Video Interleave
File size : 1.46 GiB
Duration : 2h 2mn
Overall bit rate : 1 708 Kbps
Writing application : Lavf52.93.0
Writing library : VirtualDub build 35503/release
Video #0
ID : 0
Format : MPEG-4 Visual
Format settings, BVOP : No
Format settings, QPel : No
Format settings, GMC : No warppoints
Format settings, Matrix : Default (H.263)
Codec ID : DX50
Codec ID/Hint : DivX 5
Duration : 2h 2mn
Bit rate : 1 507 Kbps
Width : 720 pixels
Height : 400 pixels
Display aspect ratio : 16:9
Frame rate : 25.000 fps
Color space : YUV
Chroma subsampling : 4:2:0
Bit depth : 8 bits
Scan type : Progressive
Compression mode : Lossy
Bits/(Pixel*Frame) : 0.209
Stream size : 1.28 GiB (88%)
Writing library : DivX 6.8.5 (UTC 2009-08-20)
Audio #1
ID : 1
Format : AC-3
Format/Info : Audio Coding 3
Mode extension : CM (complete main)
Format settings, Endianness : Big
Codec ID : 2000
Duration : 2h 2mn
Bit rate mode : Constant
Bit rate : 192 Kbps
Channel count : 2 channels
Channel positions : Front: L R
Sampling rate : 44.1 KHz
Bit depth : 16 bits
Compression mode : Lossy
Stream size : 167 MiB (11%)
Alignment : Aligned on interleaves
Interleave, duration : 40 ms (1.00 video frame)
Interleave, preload duration : 522 ms

Скриншот c названием фильма

Скриншоты

Скачать

Скачать торрент!

Как скачивать? · Что такое торрент? · Рейтинг и ограничения

Сайт не распространяет и не хранит электронные версии произведений, а лишь предоставляет доступ к создаваемому пользователями каталогу ссылок на торрент-файлы, которые содержат только списки хеш-сумм

[Профиль] [ЛС]
Показать сообщения:    
Ответить на тему

Текущее время: Сегодня 10:48

Часовой пояс: GMT + 4



Вы не можете начинать темы
Вы не можете отвечать на сообщения
Вы не можете редактировать свои сообщения
Вы не можете удалять свои сообщения
Вы не можете голосовать в опросах
Вы не можете прикреплять файлы к сообщениям
Вы не можете скачивать файлы