Это катастрофа / It\'s a Disaster (Тодд Бергер / Todd Berger) [2012, США, комедия, драма, BDRip 720p] MVO (TV1000 Comedy HD) + Sub Eng + Original Eng

Ответить на тему
 
Автор Сообщение

user ®

Стаж: 7 лет 7 месяцев

Сообщений: 20008

Пост Пост: #1 от 26-Мар-2014 22:35

[Цитировать]

Это катастрофа / It's a Disaster
Страна: США
Студия: ARM Entertainment (II), Attainment Media Group и др.
Жанр: комедия, драма
Год выпуска: 2012
Продолжительность: 01:30:01
Перевод: Профессиональный (многоголосый закадровый) TV1000 Comedy HD
Cубтитры: английские
Оригинальная аудиодорожка: английский
Режиссер: Тодд Бергер / Todd Berger
В ролях: Дэвид Кросс, Америка Феррера, Эринн Хэйс, Джефф Грэйс, Рейчел Бостон, Кевин Бреннан, Блэйз Миллер, Джулия Стайлз, Тодд Бергер, Лаура Эдкин
Описание: Четыре пары встречаются за ежемесячным совместным обедом. Неожиданно во всем городе отключается электричество и перестают работать телефоны. Вскоре они узнают, что на город кто-то напал. Они оказываются блокированы в доме, где находятся, и полностью отрезаны от внешнего мира. Нервы у всех начинают потихоньку сдавать...

Сэмпл
Тип релиза: BDRip 720p
Контейнер: MKV
Видео: MPEG4 AVC Video, H264, 2,35:1, 1280x546, 23,976 fps, 7000 kbps
Аудио: Russian (Dolby AC3, 2 ch, 224 kbps, 16 bits, 48.0 KHz) - TV1000 Comedy HD
Аудио 2: English (Dolby AC3, 6 ch, 640 kbps, 16 bits, 48.0 KHz) - оригинал
Формат субтитров: softsub (SRT)

MediaInfo

Общее
Уникальный идентификатор : 212428762336366269601700078627577008466 (0x9FD04A9C06BCFC39BC7117638D761152)
Полное имя : E:\1\Its.a.Disaster.2012.Blu.Ray.720p.mkv
Формат : Matroska
Версия формата : Version 4 / Version 2
Размер файла : 4,94 Гбайт
Продолжительность : 1 ч. 30 м.
Общий поток : 7862 Кбит/сек
Название фильма : Release Group СПАМ
Дата кодирования : UTC 2014-03-22 16:47:56
Программа кодирования : mkvmerge v6.8.0 ('Theme for Great Cities') 64bit built on Mar 2 2014 21:34:26
Библиотека кодирования : libebml v1.3.0 libmatroska v1.4.1
Видео
Идентификатор : 1
Формат : AVC
Формат/Информация : Advanced Video Codec
Профиль формата : High@L4.1
Параметр CABAC формата : Да
Параметр ReFrames формата : 11 кадров
Идентификатор кодека : V_MPEG4/ISO/AVC
Продолжительность : 1 ч. 30 м.
Битрейт : 7000 Кбит/сек
Ширина : 1280 пикселей
Высота : 546 пикселей
Соотношение сторон : 2,35:1
Режим частоты кадров : Постоянный
Частота кадров : 23,976 кадра/сек
Цветовое пространство : YUV
Субдискретизация насыщенности : 4:2:0
Битовая глубина : 8 бит
Тип развёртки : Прогрессивная
Бит/(Пиксели*Кадры) : 0.418
Размер потока : 4,30 Гбайт (87%)
Заголовок : Release Group СПАМ
Библиотека кодирования : x264 core 140 r2377kMod 1ca7bb9
Настройки программы : cabac=1 / ref=11 / deblock=1:-3:-3 / analyse=0x3:0x133 / me=umh / subme=11 / psy=1 / fade_compensate=0.00 / psy_rd=1.00:0.00 / mixed_ref=1 / me_range=64 / chroma_me=1 / trellis=2 / 8x8dct=1 / cqm=0 / deadzone=21,11 / fast_pskip=0 / chroma_qp_offset=-2 / threads=12 / lookahead_threads=3 / sliced_threads=0 / nr=0 / decimate=0 / interlaced=0 / bluray_compat=0 / constrained_intra=0 / fgo=0 / bframes=12 / b_pyramid=2 / b_adapt=2 / b_bias=0 / direct=3 / weightb=1 / open_gop=0 / weightp=2 / keyint=250 / keyint_min=23 / scenecut=40 / intra_refresh=0 / rc_lookahead=40 / rc=2pass / mbtree=0 / bitrate=7000 / ratetol=1.0 / qcomp=0.70 / qpmin=0 / qpmax=69 / qpstep=4 / cplxblur=20.0 / qblur=0.5 / vbv_maxrate=50000 / vbv_bufsize=62500 / nal_hrd=none / filler=0 / ip_ratio=1.40 / pb_ratio=1.30 / aq=1:0.60
Язык : English
Default : Да
Forced : Нет
Основные цвета : BT.709
Характеристики трансфера : BT.709
Коэффициенты матрицы : BT.709
Аудио #1
Идентификатор : 2
Формат : AC-3
Формат/Информация : Audio Coding 3
Расширение режима : CM (complete main)
Параметр Endianness формата : Big
Идентификатор кодека : A_AC3
Продолжительность : 1 ч. 30 м.
Вид битрейта : Постоянный
Битрейт : 224 Кбит/сек
Каналы : 2 канала
Расположение каналов : Front: L R
Частота : 48,0 КГц
Битовая глубина : 16 бит
Метод сжатия : С потерями
Размер потока : 144 Мбайт (3%)
Заголовок : «TV1000 Comedy HD»
Язык : Russian
Default : Да
Forced : Да
Аудио #2
Идентификатор : 3
Формат : AC-3
Формат/Информация : Audio Coding 3
Расширение режима : CM (complete main)
Параметр Endianness формата : Big
Идентификатор кодека : A_AC3
Продолжительность : 1 ч. 30 м.
Вид битрейта : Постоянный
Битрейт : 640 Кбит/сек
Каналы : 6 каналов
Расположение каналов : Front: L C R, Side: L R, LFE
Частота : 48,0 КГц
Битовая глубина : 16 бит
Метод сжатия : С потерями
Размер потока : 412 Мбайт (8%)
Язык : English
Default : Нет
Forced : Нет
Текст
Идентификатор : 4
Формат : UTF-8
Идентификатор кодека : S_TEXT/UTF8
Идентификатор кодека/Информация : UTF-8 Plain Text
Язык : English
Default : Нет
Forced : Нет
Меню
00:00:00.000 : en:00:00:00.000
00:08:14.953 : en:00:08:14.953
00:17:56.659 : en:00:17:56.659
00:24:45.734 : en:00:24:45.734
00:30:23.363 : en:00:30:23.363
00:37:26.119 : en:00:37:26.119
00:44:03.432 : en:00:44:03.432
00:49:44.773 : en:00:49:44.773
00:55:10.974 : en:00:55:10.974
01:00:43.807 : en:01:00:43.807
01:07:05.104 : en:01:07:05.104
01:09:28.206 : en:01:09:28.206
01:15:08.879 : en:01:15:08.879
01:26:03.658 : en:01:26:03.658

Скриншоты

Скачать

Скачать торрент!

Как скачивать? · Что такое торрент? · Рейтинг и ограничения

Сайт не распространяет и не хранит электронные версии произведений, а лишь предоставляет доступ к создаваемому пользователями каталогу ссылок на торрент-файлы, которые содержат только списки хеш-сумм

[Профиль] [ЛС]
Показать сообщения:    
Ответить на тему

Текущее время: Сегодня 14:33

Часовой пояс: GMT + 4



Вы не можете начинать темы
Вы не можете отвечать на сообщения
Вы не можете редактировать свои сообщения
Вы не можете удалять свои сообщения
Вы не можете голосовать в опросах
Вы не можете прикреплять файлы к сообщениям
Вы не можете скачивать файлы