Юлий Цезарь / Julius Caesar (Ули Эдель / Uli Edel) [2002, США, Германия, Италия, Нидерланды, военный, биография, история, BDRip 720p] DVO + Original (Eng) + Sub (Rus)

Ответить на тему
 
Автор Сообщение

user ®

Стаж: 7 лет 7 месяцев

Сообщений: 20008

Пост Пост: #1 от 26-Мар-2014 22:35

[Цитировать]

Юлий Цезарь / Julius Caesar

-
-Страна: США, Германия, Италия, Нидерланды
Жанр: драма, военный, биография, история
Год выпуска: 2002
Продолжительность: 02:57:37
Перевод: Профессиональный (двухголосый закадровый)
Оригинальная аудиодорожка: Английский
Cубтитры: Русские-Режиссер: Ули Эдель / Uli Edel-В ролях: Джереми Систо, Ричард Харрис, Кристофер Уокен, Валерия Голино, Крис Нот, Памела Бауэн, Хайно Ферх, Тобиас Моретти, Даниэла Пьяцца и др.-Описание: Фильм повествует о жизни великого Римского Императора Юлия Цезаря. Но это не просто эпитафия знаменитому оратору, политику, военачальнику и диктатору Великой Римской Империи. Это трагедия мужчины, пережившего смерть любимой женщины и трагедия Императора. Пожертвовавшего любовью египетской царицы Клеопатры ради могущества своей страны. «Юлий Цезарь» — это история борьбы любви и долга, воли и желаний, амбиций и законов, борьбы с богами и людьми за могущество и величие своей страны.--
Рип: iFPD
Спасибо ув. DYD1974 за диск... И тов. Antar за сабы...-Тип релиза: BDRip.720p
Контейнер: MKV
Видеокодек: AVC
Видео: 1280x720 (16:9); 7241 Kbps; 23.976 fps
Аудио-1: Russian / 48 kHz, DTS, 5.1 (L,C,R, / L,R,) LFE, 768 kbps (Профессиональный двухголосый)
Аудио-2: English / 48 kHz, DTS, 5.1 (L,C,R, / L,R,) LFE, 1509 kbps (внешний)
Субтитры: Russian / SRT (UTF-8 Plain Text)

MediaInfo

Julius Caesar (2002)\Julius Caesar (2002).mkv
Формат : Matroska
Версия формата : Version 4 / Version 2
Размер файла : 9,94 Гбайт
Продолжительность : 2 ч. 57 м.
Общий поток : 8009 Кбит/сек
Название фильма : Julius Caesar (2002)
Дата кодирования : UTC 2014-03-26 09:04:22
Программа кодирования : mkvmerge v6.1.0 ('Old Devil') built on Mar 2 2013 14:32:37
Библиотека кодирования : libebml v1.3.0 + libmatroska v1.4.0
Attachment : Yes
Видео
Идентификатор : 1
Формат : AVC
Формат/Информация : Advanced Video Codec
Профиль формата : High@L4.1
Параметр CABAC формата : Да
Параметр ReFrames формата : 5 кадров
Идентификатор кодека : V_MPEG4/ISO/AVC
Продолжительность : 2 ч. 57 м.
Битрейт : 7241 Кбит/сек
Ширина : 1280 пикселей
Высота : 720 пикселей
Соотношение сторон : 16:9
Режим частоты кадров : Постоянный
Частота кадров : 23,976 кадра/сек
Цветовое пространство : YUV
Субдискретизация насыщенности : 4:2:0
Битовая глубина : 8 бит
Тип развёртки : Прогрессивная
Бит/(Пиксели*Кадры) : 0.328
Размер потока : 8,79 Гбайт (88%)
Заголовок : Julius Caesar (2002) -=iFPD=-
Библиотека кодирования : x264 core 138 r2358 9e941d1
Настройки программы : cabac=1 / ref=5 / deblock=1:0:0 / analyse=0x3:0x113 / me=umh / subme=7 / psy=1 / psy_rd=1.00:0.00 / mixed_ref=1 / me_range=16 / chroma_me=1 / trellis=1 / 8x8dct=1 / cqm=0 / deadzone=21,11 / fast_pskip=0 / chroma_qp_offset=-2 / threads=12 / lookahead_threads=2 / sliced_threads=0 / nr=0 / decimate=1 / interlaced=0 / bluray_compat=0 / constrained_intra=0 / bframes=3 / b_pyramid=2 / b_adapt=2 / b_bias=0 / direct=3 / weightb=1 / open_gop=0 / weightp=2 / keyint=250 / keyint_min=23 / scenecut=40 / intra_refresh=0 / rc_lookahead=50 / rc=2pass / mbtree=1 / bitrate=7241 / ratetol=1.0 / qcomp=0.60 / qpmin=0 / qpmax=69 / qpstep=4 / cplxblur=20.0 / qblur=0.5 / ip_ratio=1.40 / aq=1:1.00
Язык : English
Default : Да
Forced : Нет
Аудио
Идентификатор : 2
Формат : DTS
Формат/Информация : Digital Theater Systems
Режим : 16
Параметр Endianness формата : Big
Идентификатор кодека : A_DTS
Продолжительность : 2 ч. 57 м.
Вид битрейта : Постоянный
Битрейт : 768 Кбит/сек
Каналы : 6 каналов
Расположение каналов : Front: L C R, Side: L R, LFE
Частота : 48,0 КГц
Битовая глубина : 24 бит
Метод сжатия : С потерями
Размер потока : 976 Мбайт (10%)
Язык : Russian
Default : Да
Forced : Нет
Текст
Идентификатор : 3
Формат : UTF-8
Идентификатор кодека : S_TEXT/UTF8
Идентификатор кодека/Информация : UTF-8 Plain Text
Язык : Russian
Default : Да
Forced : Нет
Общее
Полное имя : F:\Julius Caesar (2002)\Julius Caesar (2002)_Eng.dts
Формат : DTS
Формат/Информация : Digital Theater Systems
Размер файла : 1,87 Гбайт
Продолжительность : 2 ч. 57 м.
Режим общего битрейта : Постоянный
Общий поток : 1509 Кбит/сек-Аудио
Формат : DTS
Формат/Информация : Digital Theater Systems
Режим : 16
Параметр Endianness формата : Big
Продолжительность : 2 ч. 57 м.
Вид битрейта : Постоянный
Битрейт : 1509 Кбит/сек
Каналы : 6 каналов
Расположение каналов : Front: L C R, Side: L R, LFE
Частота : 48,0 КГц
Битовая глубина : 24 бит
Метод сжатия : С потерями
Размер потока : 1,87 Гбайт (100%)

Скриншоты




-Приятного просмотра!
Скачать

Скачать торрент!

Как скачивать? · Что такое торрент? · Рейтинг и ограничения

Сайт не распространяет и не хранит электронные версии произведений, а лишь предоставляет доступ к создаваемому пользователями каталогу ссылок на торрент-файлы, которые содержат только списки хеш-сумм

[Профиль] [ЛС]
Показать сообщения:    
Ответить на тему

Текущее время: Сегодня 14:32

Часовой пояс: GMT + 4



Вы не можете начинать темы
Вы не можете отвечать на сообщения
Вы не можете редактировать свои сообщения
Вы не можете удалять свои сообщения
Вы не можете голосовать в опросах
Вы не можете прикреплять файлы к сообщениям
Вы не можете скачивать файлы