Звено (Роман Романовский) [2012, триллер, HDRip, AVC]

Ответить на тему
 
Автор Сообщение

user ®

Стаж: 7 лет 7 месяцев

Сообщений: 20008

Пост Пост: #1 от 26-Мар-2014 22:35

[Цитировать]

Звено
Жанр: триллер
Год выпуска: 2012
Продолжительность: 02:02:03
Режиссёр: Роман Романовский
В ролях: Кристина Казинская, Иван Оранский, Алексей Лунёв, Евгений Филичкин, Владимир Смирнов , Владимир Фролов , Валентин Голубенко, Вероника Амирханова, Виктор Полторацкий и др.
Описание: Молодой ученый, пытаясь избежать срочной службы в химических войсках, выбирает альтернативную службу воспитателем в подмосковном детском доме, расположившемся в древней усадьбе. По странному стечению обстоятельств, несколько его предшественников на этой должности, странным образом погибали. Вскоре молодой человек понимает, что он попал в это место не случайно и, если он не вырвется из ловушки, в которую его заманили обстоятельства, то он станет следующим звеном в выстроенной кем-то цепи.
Доп. информация: http://www.kinopoisk.ru/film/644512/
Качество видео: HDRip
Формат видео: MKV
Видео: AVC (x264), 1152x648 (16:9), 3000 kbps, 25 fps, 0.161 bpp
Аудио: AС3, 48 KHz, 6 ch, 448 Kbps

MediaInfo

Общее
Уникальный идентификатор : 8519362240624615594921638886491286221 (0x668C4FCF1D900FE5EF36839D0E7EACD)
Полное имя : F:\Zveno_2013_H264.mkv
Формат : Matroska
Версия формата : Version 2
Размер файла : 2,97 Гбайт
Продолжительность : 2 ч. 2 м.
Общий поток : 3479 Кбит/сек
Дата кодирования : UTC 2013-01-27 22:40:42
Программа кодирования : Lavf52.93.0
Библиотека кодирования : Lavf52.93.0
Видео
Идентификатор : 1
Формат : AVC
Формат/Информация : Advanced Video Codec
Профиль формата : Baseline@L3.1
Параметр CABAC формата : Нет
Параметр ReFrames формата : 1 кадр
Идентификатор кодека : V_MPEG4/ISO/AVC
Продолжительность : 2 ч. 2 м.
Битрейт : 3000 Кбит/сек
Ширина : 1152 пикселя
Высота : 648 пикселей
Соотношение сторон : 16:9
Режим частоты кадров : Постоянный
Частота кадров : 25,000 кадров/сек
Цветовое пространство : YUV
Субдискретизация насыщенности : 4:2:0
Битовая глубина : 8 бит
Тип развёртки : Прогрессивная
Бит/(Пиксели*Кадры) : 0.161
Размер потока : 2,53 Гбайт (85%)
Библиотека кодирования : x264 core 112
Настройки программы : cabac=0 / ref=1 / deblock=1:0:0 / analyse=0x1:0x111 / me=hex / subme=7 / psy=1 / psy_rd=1.00:0.00 / mixed_ref=0 / me_range=16 / chroma_me=1 / trellis=1 / 8x8dct=0 / cqm=0 / deadzone=21,11 / fast_pskip=1 / chroma_qp_offset=-2 / threads=1 / sliced_threads=0 / nr=0 / decimate=1 / interlaced=0 / constrained_intra=0 / bframes=0 / weightp=0 / keyint=250 / keyint_min=25 / scenecut=40 / intra_refresh=0 / rc_lookahead=40 / rc=abr / mbtree=1 / bitrate=3000 / ratetol=1.0 / qcomp=0.60 / qpmin=10 / qpmax=51 / qpstep=4 / ip_ratio=1.41 / aq=1:1.00
Default : Да
Forced : Нет
Дата кодирования : UTC 2013-01-27 22:40:42
Аудио
Идентификатор : 2
Формат : AC-3
Формат/Информация : Audio Coding 3
Расширение режима : CM (complete main)
Параметр Endianness формата : Big
Идентификатор кодека : A_AC3
Продолжительность : 2 ч. 2 м.
Вид битрейта : Постоянный
Битрейт : 448 Кбит/сек
Каналы : 6 каналов
Расположение каналов : Front: L C R, Side: L R, LFE
Частота : 48,0 КГц
Битовая глубина : 16 бит
Метод сжатия : С потерями
Размер потока : 391 Мбайт (13%)
Default : Да
Forced : Нет
Дата кодирования : UTC 2013-01-27 22:46:18

Скриншот c названием фильма

Скриншоты

Скачать

Скачать торрент!

Как скачивать? · Что такое торрент? · Рейтинг и ограничения

Сайт не распространяет и не хранит электронные версии произведений, а лишь предоставляет доступ к создаваемому пользователями каталогу ссылок на торрент-файлы, которые содержат только списки хеш-сумм

[Профиль] [ЛС]
Показать сообщения:    
Ответить на тему

Текущее время: Сегодня 06:11

Часовой пояс: GMT + 4



Вы не можете начинать темы
Вы не можете отвечать на сообщения
Вы не можете редактировать свои сообщения
Вы не можете удалять свои сообщения
Вы не можете голосовать в опросах
Вы не можете прикреплять файлы к сообщениям
Вы не можете скачивать файлы