Белый шторм / The White Storm (Бенни Чан / Benny Chan) [2013, Гонконг, драма, боевик, HDRip] VО

Ответить на тему
 
Автор Сообщение

user ®

Стаж: 11 лет

Сообщений: 15151

Пост Пост: #1 от 26-Мар-2014 19:25

[Цитировать]

Белый шторм / The White Storm
Страна: Гонконг
Жанр: драма, боевик
Год выпуска: 2013
Продолжительность: 02:14:14
Перевод: Одноголосый закадровый Дмитрий Есарев
Cубтитры: нет
Режиссер: [Бенни Чан / Benny Chan
В ролях: Луис Ку, Чинг Ван Лау, Ник Чун, Квон Йуан, Хой-Панг Ло, Лик-Сун Фон, Тинг Йип ЭнДжи, Йонг Хоу
Описание: Сильнейший смерч, который случился в Гонконге зимой, не оставляет надежды ни тем людям, которые в это время находятся на улице, ни тем, что укрылись в домах. Огромные глыбы льда отрываются от земли и несутся по улицах, сметая все на своем пути, а дома разрушаются, словно они построены из песка. Сильнейший ветер не оставляет надежды никому, поэтому группа ученых пытается выяснить, чем же все-таки вызвано это стихийное бедствие. И оказывается, что тут повинны вовсе не силы природы. Просто некие криминальные элементы решили создать коллапс, чтобы не быть разоблаченными и провели при помощи недобросовестных ученых некий жуткий эксперимент. Однако они сами не подозревали, какие последствия все это может иметь, ведь им тоже не укрыться от разбушевавшейся стихии.
Сэмпл: http://multi-up.com/962011
Качество видео: HDRip
Формат видео: AVI
Видео: XviD, 1358 kb/s, 720x304, 24,000 кадра/сек
Аудио: AC3, 192 kb/s (2 ch), 48,0 КГц

MediaInfo

I:\Белый шторм\The.White.Storm.2013.L1.HDRip.1.46GB.avi
General
Complete name : I:\Белый шторм\The.White.Storm.2013.L1.HDRip.1.46GB.avi
Format : AVI
Format/Info : Audio Video Interleave
File size : 1.46 GiB
Duration : 2h 14mn
Overall bit rate : 1 560 Kbps
Writing application : VirtualDubMod 1.5.10.3 | www.virtualdub-fr.org || (build 2550/release)
Writing library : VirtualDubMod build 2550/release
Video #0
ID : 0
Format : MPEG-4 Visual
Format profile : Advanced Simple@L5
Format settings, BVOP : 2
Format settings, QPel : No
Format settings, GMC : No warppoints
Format settings, Matrix : Custom
Codec ID : XVID
Codec ID/Hint : XviD
Duration : 2h 14mn
Bit rate : 1 359 Kbps
Width : 720 pixels
Height : 304 pixels
Display aspect ratio : 2.35:1
Frame rate : 24.000 fps
Color space : YUV
Chroma subsampling : 4:2:0
Bit depth : 8 bits
Scan type : Progressive
Compression mode : Lossy
Bits/(Pixel*Frame) : 0.259
Stream size : 1.27 GiB (87%)
Writing library : XviD 73
Audio #1
ID : 1
Format : AC-3
Format/Info : Audio Coding 3
Mode extension : CM (complete main)
Format settings, Endianness : Big
Codec ID : 2000
Duration : 2h 14mn
Bit rate mode : Constant
Bit rate : 192 Kbps
Channel count : 2 channels
Channel positions : Front: L R
Sampling rate : 48.0 KHz
Bit depth : 16 bits
Compression mode : Lossy
Stream size : 184 MiB (12%)
Alignment : Split accross interleaves
Interleave, duration : 42 ms (1.00 video frame)
Interleave, preload duration : 500 ms

Скриншот c названием фильма

Скриншоты

Скачать

Скачать торрент! Белый шторм / The White Storm (Бенни Чан / Benny Chan) [2013, Гонконг, драма, боевик, HDRip] VО

Как скачивать? · Что такое торрент? · Рейтинг и ограничения

Сайт не распространяет и не хранит электронные версии произведений, а лишь предоставляет доступ к создаваемому пользователями каталогу ссылок на торрент-файлы, которые содержат только списки хеш-сумм

[Профиль] [ЛС]
Показать сообщения:    
Ответить на тему

Текущее время: Сегодня 18:51

Часовой пояс: GMT + 4



Вы не можете начинать темы
Вы не можете отвечать на сообщения
Вы не можете редактировать свои сообщения
Вы не можете удалять свои сообщения
Вы не можете голосовать в опросах
Вы не можете прикреплять файлы к сообщениям
Вы не можете скачивать файлы