Дорога домой / Hui jia de lu / Home run (Фан Ганлян / Fang Gangliang) [2008, Китай, драма, DVDRip] Sub Rus

Ответить на тему
 
Автор Сообщение

user ®

Стаж: 11 лет

Сообщений: 15151

Пост Пост: #1 от 26-Мар-2014 19:25

[Цитировать]

Дорога домой / Hui jia de lu / Home run
Страна: Китай
Жанр: драма
Год выпуска: 2008
Продолжительность: 01:37:39-Перевод: Субтитры (Franek Monk)
Cубтитры: русские (srt, отдельно)
Оригинальная аудиодорожка: Китайский-Режиссер: Фан Ганлян / Fang Gangliang
В ролях: Фань Бинбин, Цзоу Яньвэнь, Чепмен То-Описание: янь Цунь — продюсер и ведущая популярного на телевидении реалити-шоу «Дорога домой». В ходе этого шоу ребенка оставляют одного посреди большого города и он сам должен найти дорогу домой. А в это время в прямом эфире за каждым его шагом следят десятки камер и тысячи телезрителей. Программа, по замыслу авторов, выявляет насколько развит у детей инстинкт самосохранения. Но шоу, некогда пользовавшееся большим успехом, последнее время падает в рейтинге. Тянь Цунь столкнулась с проблемой поиска детей, а точнее родителей, согласных подвергнуть свое чадо такому испытанию. И вот, чтобы как-то спасти тонущий корабль, она решает сделать главным героем следующей серии своего собственного сына. Проблема в том, что знаменитая мать почти не знает своего сына. Мальчуган, с рождения воспитанный отцом, оказывется очень находчивым и смешным. По дороге домой, он сталкивается с разного рода препятствиями на своем пути и решает их очень неожиданными способами. Публика в диком восторге, рейтинги растут... Но не стоит радоваться раньше времени, ведь все трудности еще впереди.- -Качество видео: DVDRip (неизвестно)
Формат видео: AVI
Видео: XviD, 640x352 (1.82:1), 23.976 fps, 898 kbps avg, 0.17 bit/pixel
Аудио: Китайский MPEG layer 3, VBR-

Пример субтитров

00:00:35,265 --> 00:00:40,469
ПУТЬ ДОМОЙ
1
00:00:46,265 --> 00:00:50,469
Товарищ Лу Юаньфан, ты ищешь жену,
2
00:00:50,699 --> 00:00:54,669
а не пациента осматриваешь. Улыбнись.
3
00:00:54,866 --> 00:00:57,835
И не надо говорить о зубах.
4
00:00:58,032 --> 00:01:00,667
Как бы там ни было, возьми меня с собой.
5
00:01:00,833 --> 00:01:02,334
Я помогу тебе правильно оценить ситуацию
6
00:01:02,532 --> 00:01:04,166
за небольшое вознаграждение.
7
00:01:04,466 --> 00:01:06,734
Просто угости меня жареными пельменями после этого.
8
00:01:09,766 --> 00:01:12,301
Улыбнись для меня.
9
00:01:15,099 --> 00:01:18,502
Как я могу не беспокоиться за тебя?
10
00:01:53,299 --> 00:01:55,067
Всем привет, я Тянь Цун.
11
00:01:55,265 --> 00:01:56,933
Добро пожаловать на шоу «Путь домой».
12
00:01:57,132 --> 00:01:58,633
Сегодня наш VIP-гость
13
00:01:58,833 --> 00:02:00,834
герой прошлого выпуска нашего шоу.
14
00:02:00,966 --> 00:02:03,101
Давайте поприветствуем его.
15
00:02:04,666 --> 00:02:06,267
Помаши всем.
16
00:02:08,065 --> 00:02:10,467
Прежде всего, ответим на звонок.
17
00:02:10,666 --> 00:02:11,933
Узнаем, какие вопросы
18
00:02:12,366 --> 00:02:13,567
могут быть у телезрителей
19
00:02:13,799 --> 00:02:15,100
к нашему герою.
20
00:02:15,265 --> 00:02:19,002
Мы вас слушаем. Алло, здравствуйте.
21
00:02:19,265 --> 00:02:20,965
О, я дозвонился. Здравствуйте.
22
00:02:21,132 --> 00:02:21,933
Я ваш поклонник!
23
00:02:22,632 --> 00:02:25,001
Хочу спросить, почему Ван Лян
24
00:02:25,165 --> 00:02:26,799
не взял такси,
25
00:02:27,065 --> 00:02:28,232
а вместо этого пошёл домой пешком?
26
00:02:28,399 --> 00:02:30,234
Это очень хороший вопрос!
27
00:02:30,399 --> 00:02:31,833
Вся наша аудитория
28
00:02:32,165 --> 00:02:33,633
очень хочет услышать ответ на него.
29
00:02:33,799 --> 00:02:35,267
А теперь давайте послушаем
30
00:02:35,499 --> 00:02:37,834
что скажет Ван Лян о ходе своих мыслей.
31
00:02:38,000 --> 00:02:39,134
Итак.
32
00:02:39,499 --> 00:02:42,168
Я… Я…
Опусти руку!
33
00:02:42,332 --> 00:02:44,967
Пешая ходьба может развить мою способность
34
00:02:45,132 --> 00:02:48,435
находить дорогу домой.
35
00:02:48,599 --> 00:02:52,135
Потому что… дети моего поколения
36
00:02:52,332 --> 00:02:58,471
это в основном избалованные единственные дети в семье.
37
00:02:58,699 --> 00:03:03,737
Нам не хватает…
Не хватает независимости и самостоятельности.
38
00:03:04,065 --> 00:03:08,235
Ты всё запорол! Стоп! В чём дело?
39
00:03:08,432 --> 00:03:11,300
Как мы можем выходить в прямой эфир, не отрепетировав?
40
00:03:12,366 --> 00:03:13,233
Заново!
41
00:03:13,499 --> 00:03:14,333
Босс!
42
00:03:22,232 --> 00:03:22,999
Босс...
43
00:03:26,432 --> 00:03:27,432
Чей это мобильник?
44
00:03:28,399 --> 00:03:29,500
Сколько раз я уже говорила вам!
45
00:03:29,699 --> 00:03:30,866
Ставьте все мобильники на виброрежим
46
00:03:31,199 --> 00:03:32,500
за 30 минут до эфира!
47
00:03:33,499 --> 00:03:36,201
Это господин Чжоу.
48
00:03:46,666 --> 00:03:47,666
Господин Чжоу?
49
00:03:47,866 --> 00:03:49,634
Вы не проигнорируете мой звонок, не так ли?
50
00:03:49,833 --> 00:03:50,867
Я бы не посмела, господин Чжоу.
50
00:07:48,234 --> 00:07:49,861
Мой член?

MediaInfo

Format : AVI
Format/Info : Audio Video Interleave
File size : 699 MiB
Duration : 1h 33mn
Overall bit rate mode : Variable
Overall bit rate : 1 044 Kbps
Writing application : VirtualDubMod 1.5.10.2 (build 2540/release)
Writing library : VirtualDubMod build 2540/release
Video
ID : 0
Format : MPEG-4 Visual
Format profile : Advanced Simple@L5
Format settings, BVOP : 2
Format settings, QPel : Yes
Format settings, GMC : No warppoints
Format settings, Matrix : Default (MPEG)
Muxing mode : Packed bitstream
Codec ID : XVID
Codec ID/Hint : XviD
Duration : 1h 33mn
Bit rate : 899 Kbps
Width : 640 pixels
Height : 352 pixels
Display aspect ratio : 16:9
Frame rate : 23.976 fps
Color space : YUV
Chroma subsampling : 4:2:0
Bit depth : 8 bits
Scan type : Progressive
Compression mode : Lossy
Bits/(Pixel*Frame) : 0.166
Stream size : 602 MiB (86%)
Writing library : XviD 1.1.2 (UTC 2006-11-01)
Audio
ID : 1
Format : MPEG Audio
Format version : Version 1
Format profile : Layer 3
Mode : Joint stereo
Mode extension : MS Stereo
Codec ID : 55
Codec ID/Hint : MP3
Duration : 1h 33mn
Bit rate mode : Variable
Bit rate : 128 Kbps
Channel(s) : 2 channels
Sampling rate : 48.0 KHz
Compression mode : Lossy
Stream size : 88.6 MiB (13%)
Alignment : Aligned on interleaves
Interleave, duration : 24 ms (0.58 video frame)
Interleave, preload duration : 139 ms

Скриншот с названием

Скриншоты

Скачать

Скачать торрент! Дорога домой / Hui jia de lu / Home run (Фан Ганлян / Fang Gangliang) [2008, Китай, драма, DVDRip] Sub Rus

Как скачивать? · Что такое торрент? · Рейтинг и ограничения

Сайт не распространяет и не хранит электронные версии произведений, а лишь предоставляет доступ к создаваемому пользователями каталогу ссылок на торрент-файлы, которые содержат только списки хеш-сумм

[Профиль] [ЛС]
Показать сообщения:    
Ответить на тему

Текущее время: Сегодня 07:22

Часовой пояс: GMT + 4



Вы не можете начинать темы
Вы не можете отвечать на сообщения
Вы не можете редактировать свои сообщения
Вы не можете удалять свои сообщения
Вы не можете голосовать в опросах
Вы не можете прикреплять файлы к сообщениям
Вы не можете скачивать файлы