Токсин / Toxin (Том Рэйкоув / Tom Raycove) [2014, Канада, ужасы, боевик, WEB-DLRip] MVO (НТВ+) + Original Eng

Ответить на тему
 
Автор Сообщение

user ®

Стаж: 7 лет 7 месяцев

Сообщений: 20008

Пост Пост: #1 от 26-Мар-2014 13:05

[Цитировать]

Токсин / Toxin
Страна: Канада
Жанр: ужасы, боевик
Год выпуска: 2014
Продолжительность: 01:12:01
Перевод: Профессиональный (многоголосый закадровый) НТВ+
Cубтитры: нет
Оригинальная аудиодорожка: английский
Режиссер: Том Рэйкоув / Tom Raycove
В ролях: Карина Каррек, Кира Загорский, Патрик Сабонгуй, Пол Лейзенби, Дуглас Чэпман, Филип Грэйнджер, Далиас Блейк, Брюс Кроуфорд, Джиллз Пэнтон, Ллойд Адамс, Кертис Льюм, Дэйв Коте, Рик Кивиао, Райан Хесп, Джастин Доран, Брайан МакБрайд
Описание: Возле острова, где располагается секретная американская военная база, терпит крушение туристический самолёт. Все пассажиры, за исключением пилота, выживают, однако на этом их злоключения не заканчиваются…
Сэмпл: http://multi-up.com/961774 http://multi-up.com/962016
Качество видео: WEB-DLRip
Формат видео: AVI
Видео: XviD, 1935 kb/s, 720x304, 23,976 кадра/сек
Аудио: Русский: AC3, 384 kb/s (6 ch), 48,0 КГц
Аудио 2: English: AC3, 384 kb/s (6 ch), 48,0 КГц

MediaInfo

I:\Токсин\Toksin.2014.P.WEBDLRip.1400Mb.avi
General
Complete name : I:\Токсин\Toksin.2014.P.WEBDLRip.1400Mb.avi
Format : AVI
Format/Info : Audio Video Interleave
File size : 1.37 GiB
Duration : 1h 12mn
Overall bit rate : 2 718 Kbps
Writing application : VirtualDubMod 1.5.10.2 (build 2540/release)
Writing library : VirtualDubMod build 2540/release
Video #0
ID : 0
Format : MPEG-4 Visual
Format profile : Advanced Simple@L5
Format settings, BVOP : 2
Format settings, QPel : No
Format settings, GMC : No warppoints
Format settings, Matrix : Default (MPEG)
Codec ID : XVID
Codec ID/Hint : XviD
Duration : 1h 12mn
Bit rate : 1 937 Kbps
Width : 720 pixels
Height : 304 pixels
Display aspect ratio : 2.35:1
Frame rate : 23.976 fps
Color space : YUV
Chroma subsampling : 4:2:0
Bit depth : 8 bits
Scan type : Progressive
Compression mode : Lossy
Bits/(Pixel*Frame) : 0.369
Stream size : 998 MiB (71%)
Writing library : XviD 1.2.1 (UTC 2008-12-04)
Audio #1
ID : 1
Format : AC-3
Format/Info : Audio Coding 3
Mode extension : CM (complete main)
Format settings, Endianness : Big
Codec ID : 2000
Duration : 1h 12mn
Bit rate mode : Constant
Bit rate : 384 Kbps
Channel count : 6 channels
Channel positions : Front: L C R, Side: L R, LFE
Sampling rate : 48.0 KHz
Bit depth : 16 bits
Compression mode : Lossy
Stream size : 198 MiB (14%)
Alignment : Split accross interleaves
Interleave, duration : 42 ms (1.00 video frame)
Interleave, preload duration : 500 ms
Audio #2
ID : 2
Format : AC-3
Format/Info : Audio Coding 3
Mode extension : CM (complete main)
Format settings, Endianness : Big
Codec ID : 2000
Duration : 1h 12mn
Bit rate mode : Constant
Bit rate : 384 Kbps
Channel count : 6 channels
Channel positions : Front: L C R, Side: L R, LFE
Sampling rate : 48.0 KHz
Bit depth : 16 bits
Compression mode : Lossy
Stream size : 198 MiB (14%)
Alignment : Split accross interleaves
Interleave, duration : 42 ms (1.00 video frame)
Interleave, preload duration : 500 ms

Скриншот c названием фильма

Скриншоты

Скачать

Скачать торрент!

Как скачивать? · Что такое торрент? · Рейтинг и ограничения

Сайт не распространяет и не хранит электронные версии произведений, а лишь предоставляет доступ к создаваемому пользователями каталогу ссылок на торрент-файлы, которые содержат только списки хеш-сумм

[Профиль] [ЛС]
Показать сообщения:    
Ответить на тему

Текущее время: Сегодня 04:48

Часовой пояс: GMT + 4



Вы не можете начинать темы
Вы не можете отвечать на сообщения
Вы не можете редактировать свои сообщения
Вы не можете удалять свои сообщения
Вы не можете голосовать в опросах
Вы не можете прикреплять файлы к сообщениям
Вы не можете скачивать файлы