РэПэПэ / Режим полного погружения (Евгений Барханов) [2012, Трагикомедия, SATRip]

Ответить на тему
 
Автор Сообщение

user ®

Стаж: 7 лет 7 месяцев

Сообщений: 20008

Пост Пост: #1 от 26-Мар-2014 08:05

[Цитировать]

РэПэПэ / Режим полного погружения
Жанр: Трагикомедия
Год выпуска: 2012
Продолжительность: 01:46:02
Режиссёр: Евгений Барханов
В ролях: Антон Куценко, Ричард Бондарев, Игорь Кулачко, Ирина Яковлева, Евгений Барханов, Раиса Конюхова, Андрей Бронников, Александр Руснак, Наталья Пярн, Этьен Понселе, Владислав Кувицын, Вадим Кувицын, Ульрих Хербек
Описание: Главные герои фильма друзья - Жора, Валера и Изольда. Они решают открыть туристическое агентство для иностранцев "Stalin_adrenalin.ru". Желающие смогут полностью погрузиться в 1942 год, в образе солдат того времени вблизи Ржева. Но в определенный момент в местных жителях оживут воспоминания в военном времени, и развлечение превратится в реальность. С героями станут происходить не только смешные и нелепые ситуации, но и настоящие человеческие драмы...
Сэмпл: http://multi-up.com/962023
Качество видео: SATRip
Формат видео: AVI
Видео: 720x400 (1.80:1), 25 fps, XviD build 50 ~1710 kbps avg, 0.24 bit/pixel
Аудио: 48 kHz, MPEG Layer 3, 2 ch, ~128.00 kbps avg

MediaInfo

I:\РэПэПэ Режим полного погружения\Rezgim.polnogo.pogruzgenija.2012.SATRip.RusTorents.avi
General
Complete name : I:\РэПэПэ Режим полного погружения\Rezgim.polnogo.pogruzgenija.2012.SATRip.RusTorents.avi
Format : AVI
Format/Info : Audio Video Interleave
File size : 1.37 GiB
Duration : 1h 46mn
Overall bit rate : 1 846 Kbps
Writing application : VirtualDubMod 1.5.4.1 (build 2178/release)
Writing library : VirtualDubMod build 2178/release
Video #0
ID : 0
Format : MPEG-4 Visual
Format profile : Advanced Simple@L5
Format settings, BVOP : 1
Format settings, QPel : No
Format settings, GMC : No warppoints
Format settings, Matrix : Custom
Codec ID : XVID
Codec ID/Hint : XviD
Duration : 1h 46mn
Bit rate : 1 711 Kbps
Width : 720 pixels
Height : 400 pixels
Display aspect ratio : 16:9
Frame rate : 25.000 fps
Color space : YUV
Chroma subsampling : 4:2:0
Bit depth : 8 bits
Scan type : Progressive
Compression mode : Lossy
Bits/(Pixel*Frame) : 0.238
Stream size : 1.27 GiB (93%)
Writing library : XviD 1.2.1 (UTC 2008-12-04)
Audio #1
ID : 1
Format : MPEG Audio
Format version : Version 1
Format profile : Layer 3
Mode : Joint stereo
Mode extension : MS Stereo
Codec ID : 55
Codec ID/Hint : MP3
Duration : 1h 46mn
Bit rate mode : Constant
Bit rate : 128 Kbps
Channel count : 2 channels
Sampling rate : 48.0 KHz
Compression mode : Lossy
Stream size : 97.1 MiB (7%)
Alignment : Aligned on interleaves
Interleave, duration : 80 ms (2.00 video frames)
Interleave, preload duration : 504 ms
Writing library : LAME3.98r
Encoding settings : -m j -V 4 -q 2 -lowpass 17 -b 128

Скриншот c названием фильма

Скриншоты

Скачать

Скачать торрент!

Как скачивать? · Что такое торрент? · Рейтинг и ограничения

Сайт не распространяет и не хранит электронные версии произведений, а лишь предоставляет доступ к создаваемому пользователями каталогу ссылок на торрент-файлы, которые содержат только списки хеш-сумм

[Профиль] [ЛС]
Показать сообщения:    
Ответить на тему

Текущее время: Сегодня 00:43

Часовой пояс: GMT + 4



Вы не можете начинать темы
Вы не можете отвечать на сообщения
Вы не можете редактировать свои сообщения
Вы не можете удалять свои сообщения
Вы не можете голосовать в опросах
Вы не можете прикреплять файлы к сообщениям
Вы не можете скачивать файлы