Белый шторм / The White Storm (Бенни Чан / Benny Chan) [2013, Гонконг, криминал, драма, боевик, BDRip-AVC] VO Есарев + Sub Eng + Original Chi

Ответить на тему
 
Автор Сообщение

user ®

Стаж: 11 лет

Сообщений: 15151

Пост Пост: #1 от 26-Мар-2014 04:55

[Цитировать]

Белый шторм / The White Storm
Страна: Гонконг
Жанр: криминал, драма, боевик
Год выпуска: 2013
Продолжительность: 02:14:14
Перевод: Одноголосый закадровый - Дмитрий Есарев
Cубтитры: английские
Оригинальная аудиодорожка: китайский
Режиссер: Бенни Чан / Benny Chan
В ролях: Луис Ку, Чинг Ван Лау, Ник Чун, Квон Йуан, Хой-Панг Ло, Лик-Сун Фон, Тинг Йип ЭнДжи, Йонг Хоу и др.
Описание:
Сильнейший смерч, который случился в Гонконге зимой, не оставляет надежды ни тем людям, которые в это время находятся на улице, ни тем, что укрылись в домах. Огромные глыбы льда отрываются от земли и несутся по улицах, сметая все на своем пути, а дома разрушаются, словно они построены из песка. Сильнейший ветер не оставляет надежды никому, поэтому группа ученых пытается выяснить, чем же все-таки вызвано это стихийное бедствие. И оказывается, что тут повинны вовсе не силы природы. Просто некие криминальные элементы решили создать коллапс, чтобы не быть разоблаченными и провели при помощи недобросовестных ученых некий жуткий эксперимент. Однако они сами не подозревали, какие последствия все это может иметь, ведь им тоже не укрыться от разбушевавшейся стихии....
Доп. информация:
Перевод Дмитрия Есарева доступен благодаря пользователям "Переулка Переводмана": будулайроманов, dikii, Skazhutin, Loki1982.
Работа со звуком - Переводман, рип от Skazhutin.

Файл:
Качество видео: BDRip-AVC, исходник [BDRemux 1080p].
Формат видео: MKV
Видео: 1024x436 (2,35:1), MPEG-4 AVC, 1425 kbps, 24.000 fps, 0.133 bit/pixel
Аудио 1: 48 kHz, AC3 Dolby Digital, 3/2 (L,C,R,l,r) + LFE ch, ~448.00 kbps avg - Есарев
Аудио 2: 48 kHz, AC3 Dolby Digital, 3/2 (L,C,R,l,r) + LFE ch, ~448.00 kbps avg - Chin

Формат субтитров: softsub (SRT)

MediaInfo

Общее
Уникальный идентификатор : 171401190914946377852560219411743021137 (0x80F2AB29F01FC96FBB6DD0AAEDA89851)
Формат : Matroska
Версия формата : Version 2
Размер файла : 2,18 Гбайт
Продолжительность : 2 ч. 14 м.
Общий поток : 2323 Кбит/сек
Дата кодирования : UTC 2014-03-25 14:03:20
Программа кодирования : mkvmerge v2.9.7 ('Tenderness') built on Jul 1 2009 18:43:35
Библиотека кодирования : libebml v0.7.7 + libmatroska v0.8.1
Attachment : Yes
Видео
Идентификатор : 1
Формат : AVC
Формат/Информация : Advanced Video Codec
Профиль формата : High@L4.1
Параметр CABAC формата : Да
Параметр ReFrames формата : 16 кадров
Идентификатор кодека : V_MPEG4/ISO/AVC
Продолжительность : 2 ч. 14 м.
Битрейт : 1425 Кбит/сек
Ширина : 1024 пикселя
Высота : 436 пикселей
Соотношение сторон : 2,35:1
Режим частоты кадров : Постоянный
Частота кадров : 24,000 кадра/сек
Цветовое пространство : YUV
Субдискретизация насыщенности : 4:2:0
Битовая глубина : 8 бит
Тип развёртки : Прогрессивная
Бит/(Пиксели*Кадры) : 0.133
Размер потока : 1,29 Гбайт (59%)
Библиотека кодирования : x264 core 142 r2389+41 02cb608 tMod [8-bit@4:2:0 X86_64]
Настройки программы : cabac=1 / ref=16 / deblock=1:-2:-2 / analyse=0x3:0x113 / me=umh / subme=11 / psy=1 / fade_compensate=0.00 / psy_rd=1.00:0.00 / mixed_ref=1 / me_range=48 / chroma_me=1 / trellis=2 / 8x8dct=1 / cqm=0 / deadzone=21,11 / fast_pskip=0 / chroma_qp_offset=-2 / threads=12 / lookahead_threads=2 / sliced_threads=0 / nr=0 / decimate=1 / interlaced=0 / bluray_compat=0 / constrained_intra=0 / fgo=0 / bframes=8 / b_pyramid=2 / b_adapt=2 / b_bias=0 / direct=3 / weightb=1 / open_gop=0 / weightp=2 / keyint=250 / keyint_min=24 / scenecut=40 / intra_refresh=0 / rc_lookahead=60 / rc=2pass / mbtree=0 / bitrate=1425 / ratetol=1.0 / qcomp=0.70 / qpmin=0:0:0 / qpmax=69:69:69 / qpstep=4 / cplxblur=20.0 / qblur=0.5 / vbv_maxrate=62500 / vbv_bufsize=78125 / nal_hrd=none / filler=0 / ip_ratio=1.40 / pb_ratio=1.30 / aq=4:0.80 / aq-sensitivity=11.00 / aq-factor=1.00:1.00:1.00 / aq2=1:0.60 / aq2-sensitivity=9.00 / aq2-factor=1.00:1.00:1.00 / aq3=1:[0.60:0.60]:[0.60:0.60]:[0.60:0.60]:[0.60:0.60] / aq3-sensitivity=10.00 / aq3-factor=[1.00:1.00]:[1.00:1.00]:[1.00:1.00] / aq3-boundary=192:64:24
Язык : Chinese
Default : Да
Forced : Нет
Основные цвета : BT.709
Характеристики трансфера : BT.709
Коэффициенты матрицы : BT.709
Аудио #1
Идентификатор : 2
Формат : AC-3
Формат/Информация : Audio Coding 3
Расширение режима : CM (complete main)
Параметр Endianness формата : Big
Идентификатор кодека : A_AC3
Продолжительность : 2 ч. 14 м.
Вид битрейта : Постоянный
Битрейт : 448 Кбит/сек
Каналы : 6 каналов
Расположение каналов : Front: L C R, Side: L R, LFE
Частота : 48,0 КГц
Битовая глубина : 16 бит
Метод сжатия : С потерями
Размер потока : 430 Мбайт (19%)
Язык : Russian
Default : Да
Forced : Нет
Аудио #2
Идентификатор : 3
Формат : AC-3
Формат/Информация : Audio Coding 3
Расширение режима : CM (complete main)
Параметр Endianness формата : Big
Идентификатор кодека : A_AC3
Продолжительность : 2 ч. 14 м.
Вид битрейта : Постоянный
Битрейт : 448 Кбит/сек
Каналы : 6 каналов
Расположение каналов : Front: L C R, Side: L R, LFE
Частота : 48,0 КГц
Битовая глубина : 16 бит
Метод сжатия : С потерями
Размер потока : 430 Мбайт (19%)
Язык : Chinese
Default : Нет
Forced : Нет
Текст
Идентификатор : 4
Формат : UTF-8
Идентификатор кодека : S_TEXT/UTF8
Идентификатор кодека/Информация : UTF-8 Plain Text
Язык : English
Default : Да
Forced : Нет

Скриншот c названием фильма

Скриншоты

Скачать

Скачать торрент! Белый шторм / The White Storm (Бенни Чан / Benny Chan) [2013, Гонконг, криминал, драма, боевик, BDRip-AVC] VO Есарев + Sub Eng + Original Chi

Как скачивать? · Что такое торрент? · Рейтинг и ограничения

Сайт не распространяет и не хранит электронные версии произведений, а лишь предоставляет доступ к создаваемому пользователями каталогу ссылок на торрент-файлы, которые содержат только списки хеш-сумм

[Профиль] [ЛС]
Показать сообщения:    
Ответить на тему

Текущее время: Сегодня 00:20

Часовой пояс: GMT + 4



Вы не можете начинать темы
Вы не можете отвечать на сообщения
Вы не можете редактировать свои сообщения
Вы не можете удалять свои сообщения
Вы не можете голосовать в опросах
Вы не можете прикреплять файлы к сообщениям
Вы не можете скачивать файлы