Люди на болоте (2 серии) (Виктор Туров) [1981, драма, экранизация, TVRip]

Ответить на тему
 
Автор Сообщение

user ®

Стаж: 7 лет 7 месяцев

Сообщений: 20008

Пост Пост: #1 от 26-Мар-2014 04:55

[Цитировать]

Люди на болоте (2 серии)
Жанр: драма, экранизация
Год выпуска: 1981
Продолжительность: 01:09:12 +-Режиссёр: Виктор Туров-В ролях: Елена Борзова, Юрий Казючиц, Борис Невзоров, Марина Яковлева, Александр Мороз, Геннадий, Гарбук Ольга, Лысенко, Светлана Кузьмина, Павел Кормунин, Юрий Горобец-Описание:
«Люди на болоте» — художественный фильм, снятый по одноимённому роману Ивана Мележа, входящему в «Полесские хроники», о становлении Советской власти в полесской деревушке.
В 20-е годы в глухие места полесских болот пришла Советская власть. Однако зажиточные хозяева деревушки Курени не собирались отдавать свои земли крестьянам. Банды запугивали людей. Но крестьяне сделали первый шаг — всей деревней они вышли прокладывать гать через болото — дорогу к новой жизни...-Качество видео: TVRip
Формат видео: AVI
Видео: 512x384 (1.33:1), 25 fps, DivX Codec 5.x or 6.x ~1271 kbps avg, 0.26 bit/pixel
Аудио: 44.100 kHz, MPEG Layer 3, 2 ch, ~95.87 kbps avg

MediaInfo

Format : AVI
Format/Info : Audio Video Interleave
File size : 682 MiB
Duration : 1h 9mn
Overall bit rate : 1 377 Kbps
Writing application : VirtualDubMod 1.5.10.2 (build 2540/release)
Writing library : VirtualDubMod build 2540/release
Video
ID : 0
Format : MPEG-4 Visual
Format settings, BVOP : 1
Format settings, QPel : No
Format settings, GMC : No warppoints
Format settings, Matrix : Default (H.263)
Muxing mode : Packed bitstream
Codec ID : DX50
Codec ID/Hint : DivX 5
Duration : 1h 9mn
Bit rate : 1 271 Kbps
Width : 512 pixels
Height : 384 pixels
Display aspect ratio : 4:3
Frame rate : 25.000 fps
Color space : YUV
Chroma subsampling : 4:2:0
Bit depth : 8 bits
Scan type : Progressive
Compression mode : Lossy
Bits/(Pixel*Frame) : 0.259
Stream size : 629 MiB (92%)
Writing library : DivX 6.8.2 (UTC 2008-05-17)
Audio
ID : 1
Format : MPEG Audio
Format version : Version 1
Format profile : Layer 3
Mode : Joint stereo
Mode extension : Intensity Stereo + MS Stereo
Codec ID : 55
Codec ID/Hint : MP3
Duration : 1h 9mn
Bit rate mode : Constant
Bit rate : 96.0 Kbps
Channel(s) : 2 channels
Sampling rate : 44.1 KHz
Compression mode : Lossy
Stream size : 47.4 MiB (7%)
Alignment : Aligned on interleaves
Interleave, duration : 40 ms (1.00 video frame)
Interleave, preload duration : 522 ms

Скриншот c названием фильма

Скриншоты

Скачать

Скачать торрент!

Как скачивать? · Что такое торрент? · Рейтинг и ограничения

Сайт не распространяет и не хранит электронные версии произведений, а лишь предоставляет доступ к создаваемому пользователями каталогу ссылок на торрент-файлы, которые содержат только списки хеш-сумм

[Профиль] [ЛС]
Показать сообщения:    
Ответить на тему

Текущее время: Сегодня 10:10

Часовой пояс: GMT + 4



Вы не можете начинать темы
Вы не можете отвечать на сообщения
Вы не можете редактировать свои сообщения
Вы не можете удалять свои сообщения
Вы не можете голосовать в опросах
Вы не можете прикреплять файлы к сообщениям
Вы не можете скачивать файлы