Конго / Congo (Фрэнк Маршалл / Frank Marshall) [1995, США, Приключения, HDTVRip 720p] DVO + MVO + AVO + VO + Sub Rus, Eng + Original Eng

Ответить на тему
 
Автор Сообщение

user ®

Стаж: 7 лет 7 месяцев

Сообщений: 20008

Пост Пост: #1 от 26-Мар-2014 01:45

[Цитировать]

Конго / Congo
Страна: США
Жанр: Приключения
Год выпуска: 1995
Бюджет: $50 000 000
Продолжительность: 01:43:46
Перевод 1: [Профессиональный, двухголосый, закадровый - ПРЕМЬЕР ВИДЕО ФИЛЬМ]
Перевод 2: [Профессиональный, многоголосый, закадровый]
Перевод 3: [Авторский, одноголосый, закадровый - Гаврилов]
Перевод 4: [Студийный, одноголосый, закадровый - Гланц]
Cубтитры: русские, английские
Оригинальная аудиодорожка: английский--Режиссер:
Фрэнк Маршалл / Frank Marshall
В ролях:
Лора Линни, Дилан Уолш, Эрни Хадсон, Тим Карри, Грант Хеслов, Джо Дон Бейкер
Описание:
Приключенческий бестселлер Майкла Крайтона ("Парк юрского периода") послужил основой этого высокобюджетного фильма, действие которого происходит в Африке. Лента захватывает зрителя с первых же минут благодаря авантюрному сюжету, остроумным диалогам и удивительным характерам. Известный ученый-приматолог отправляется в Центральную Африку для того, чтобы отпустить свою домашнюю гориллу Эмми на волю, в джунгли. Вместе с ним едет бывшая агент ЦРУ, которая пытается напасть на след затерявшейся партии исследователей, и любитель путешествий, одержимый идеей разыскать древний город. Все вместе они переживают массу увлекательных приключений, пока не попадают в лапы к гориллам-убийцам.
--Качество: HDTVRip 720p
Формат: MKV
Видео: 1280x720 (1.85:1), 25 fps, 5747 Kbps
Аудио 1: Rus: AC3; 2ch; 192kbps; 48kHz [Профессиональный, двухголосый, закадровый - ПРЕМЬЕР ВИДЕО ФИЛЬМ]
Аудио 2: Rus: AC3; 6ch; 448kbps; 48kHz [Профессиональный, многоголосый, закадровый]
Аудио 3: Rus: AC3; 6ch; 448kbps; 48kHz [Авторский, одноголосый, закадровый - Гаврилов]
Аудио 4: Rus: AC3; 6ch; 448kbps; 48kHz [Студийный, одноголосый, закадровый - Гланц]
Аудио 5: Eng: AC3; 6ch; 448kbps; 48kHz [Original]
Субтитры: Русские, Английские, softsub (SRT)

x264

Crop(2, 0, -2, -2)
Spline144Resize(1280, 720)
...last pass...
avs4x264.exe: -L x264_64.exe --pass 2 --bitrate 5747 --preset medium --level 4.1 --ref 8 --deblock -1:-1 --merange 24 --bframes 10 --direct auto --b-adapt 2 --trellis 2 --no-fast-pskip --no-dct-decimate --psy-rd 1.00:0.20 --vbv-maxrate 50000 --vbv-bufsize 50000 --partitions p8x8,b8x8,i4x4,i8x8 --subme 10 --me umh --rc-lookahead 60 --sar 1:1 --stats "D:\Temp\0021.log" --output "D:\Temp\0021.264" "D:\Temp\0021.avs"
raw [info]: 1280x720p 1:1 @ 25/1 fps (cfr)
x264 [info]: using SAR=1/1
x264 [info]: using cpu capabilities: MMX2 SSE2Fast SSEMisalign LZCNT
x264 [info]: profile High, level 4.1
x264 [info]: frame I:1078 Avg QP:14.62 size:146673
x264 [info]: frame P:42008 Avg QP:17.66 size: 55010
x264 [info]: frame B:112567 Avg QP:20.48 size: 17785
x264 [info]: consecutive B-frames: 3.1% 6.1% 10.3% 48.8% 22.7% 4.7% 1.6% 1.2% 1.2% 0.2% 0.1%
x264 [info]: mb I I16..4: 9.7% 69.4% 20.9%
x264 [info]: mb P I16..4: 1.9% 19.4% 2.9% P16..4: 33.1% 25.1% 13.3% 0.0% 0.0% skip: 4.3%
x264 [info]: mb B I16..4: 0.2% 2.2% 0.3% B16..8: 37.4% 12.7% 3.1% direct:10.1% skip:34.1% L0:39.6% L1:41.3% BI:19.0%
x264 [info]: 8x8 transform intra:79.5% inter:55.9%
x264 [info]: direct mvs spatial:99.5% temporal:0.5%
x264 [info]: coded y,uvDC,uvAC intra: 89.9% 79.0% 48.0% inter: 35.5% 26.9% 9.8%
x264 [info]: i16 v,h,dc,p: 30% 10% 11% 49%
x264 [info]: i8 v,h,dc,ddl,ddr,vr,hd,vl,hu: 12% 10% 8% 8% 12% 13% 12% 12% 14%
x264 [info]: i4 v,h,dc,ddl,ddr,vr,hd,vl,hu: 11% 8% 4% 9% 14% 15% 13% 12% 13%
x264 [info]: i8c dc,h,v,p: 41% 24% 21% 14%
x264 [info]: Weighted P-Frames: Y:4.9% UV:1.9%
x264 [info]: ref P L0: 53.0% 11.7% 15.6% 6.1% 4.2% 3.7% 3.0% 2.5% 0.3% 0.0%
x264 [info]: ref B L0: 83.8% 9.1% 3.3% 1.5% 1.2% 0.7% 0.4%
x264 [info]: ref B L1: 94.4% 5.6%
x264 [info]: kb/s:5744.73
x264 [total]: encoded 155653 frames, 5.01 fps, 5744.73 kb/s

MediaInfo

Общее
Полное имя : Конго _ Congo_1995.HDTVRip.720p.4xRus.Eng.Sub.mkv
Формат : Matroska
Версия формата : Version 2
Размер файла : 5,60 Гбайт
Продолжительность : 1 ч. 43 м.
Общий поток : 7732 Кбит/сек
Дата кодирования : UTC 2014-03-24 15:20:52
Программа кодирования : mkvmerge v6.8.0 ('Theme for Great Cities') 32bit built on Mar 2 2014 21:27:07
Библиотека кодирования : libebml v1.3.0 + libmatroska v1.4.1
Видео
Идентификатор : 1
Формат : AVC
Формат/Информация : Advanced Video Codec
Профиль формата : High@L4.1
Параметр CABAC формата : Да
Параметр ReFrames формата : 8 кадров
Идентификатор кодека : V_MPEG4/ISO/AVC
Продолжительность : 1 ч. 43 м.
Битрейт : 5747 Кбит/сек
Ширина : 1280 пикселей
Высота : 720 пикселей
Соотношение сторон : 16:9
Режим частоты кадров : Постоянный
Частота кадров : 25,000 кадров/сек
Цветовое пространство : YUV
Субдискретизация насыщенности : 4:2:0
Битовая глубина : 8 бит
Тип развёртки : Прогрессивная
Бит/(Пиксели*Кадры) : 0.249
Размер потока : 4,05 Гбайт (72%)
Библиотека кодирования : x264 core 130 r2273 b3065e6
Настройки программы : cabac=1 / ref=8 / deblock=1:-1:-1 / analyse=0x3:0x113 / me=umh / subme=10 / psy=1 / psy_rd=1.00:0.20 / mixed_ref=1 / me_range=24 / chroma_me=1 / trellis=2 / 8x8dct=1 / cqm=0 / deadzone=21,11 / fast_pskip=0 / chroma_qp_offset=-3 / threads=6 / lookahead_threads=1 / sliced_threads=0 / nr=0 / decimate=0 / interlaced=0 / bluray_compat=0 / constrained_intra=0 / bframes=10 / b_pyramid=2 / b_adapt=2 / b_bias=0 / direct=3 / weightb=1 / open_gop=0 / weightp=2 / keyint=250 / keyint_min=25 / scenecut=40 / intra_refresh=0 / rc_lookahead=60 / rc=2pass / mbtree=1 / bitrate=5747 / ratetol=1.0 / qcomp=0.60 / qpmin=0 / qpmax=69 / qpstep=4 / cplxblur=20.0 / qblur=0.5 / vbv_maxrate=50000 / vbv_bufsize=50000 / nal_hrd=none / ip_ratio=1.40 / aq=1:1.00
Default : Да
Forced : Нет
Аудио #1
Идентификатор : 2
Формат : AC-3
Формат/Информация : Audio Coding 3
Расширение режима : CM (complete main)
Параметр Endianness формата : Big
Идентификатор кодека : A_AC3
Продолжительность : 1 ч. 43 м.
Вид битрейта : Постоянный
Битрейт : 192 Кбит/сек
Каналы : 2 канала
Расположение каналов : Front: L R
Частота : 48,0 КГц
Битовая глубина : 16 бит
Метод сжатия : С потерями
Размер потока : 143 Мбайт (2%)
Заголовок : DVO ПРЕМЬЕР ВИДЕО ФИЛЬМ AC3 192Kbps 2ch 48kHz
Язык : Russian
Default : Да
Forced : Нет
Аудио #2
Идентификатор : 3
Формат : AC-3
Формат/Информация : Audio Coding 3
Расширение режима : CM (complete main)
Параметр Endianness формата : Big
Идентификатор кодека : A_AC3
Продолжительность : 1 ч. 43 м.
Вид битрейта : Постоянный
Битрейт : 448 Кбит/сек
Каналы : 6 каналов
Расположение каналов : Front: L C R, Side: L R, LFE
Частота : 48,0 КГц
Битовая глубина : 16 бит
Метод сжатия : С потерями
Размер потока : 333 Мбайт (6%)
Заголовок : MVO AC3 448Kbps 6ch 48kHz
Язык : Russian
Default : Нет
Forced : Нет
Аудио #3
Идентификатор : 4
Формат : AC-3
Формат/Информация : Audio Coding 3
Расширение режима : CM (complete main)
Параметр Endianness формата : Big
Идентификатор кодека : A_AC3
Продолжительность : 1 ч. 43 м.
Вид битрейта : Постоянный
Битрейт : 448 Кбит/сек
Каналы : 6 каналов
Расположение каналов : Front: L C R, Side: L R, LFE
Частота : 48,0 КГц
Битовая глубина : 16 бит
Метод сжатия : С потерями
Размер потока : 333 Мбайт (6%)
Заголовок : AVO Гаврилов AC3 448Kbps 6ch 48kHz
Язык : Russian
Default : Нет
Forced : Нет
Аудио #4
Идентификатор : 5
Формат : AC-3
Формат/Информация : Audio Coding 3
Расширение режима : CM (complete main)
Параметр Endianness формата : Big
Идентификатор кодека : A_AC3
Продолжительность : 1 ч. 43 м.
Вид битрейта : Постоянный
Битрейт : 448 Кбит/сек
Каналы : 6 каналов
Расположение каналов : Front: L C R, Side: L R, LFE
Частота : 48,0 КГц
Битовая глубина : 16 бит
Метод сжатия : С потерями
Размер потока : 333 Мбайт (6%)
Заголовок : AVO Гланц AC3 448Kbps 6ch 48kHz
Язык : Russian
Default : Нет
Forced : Нет
Аудио #5
Идентификатор : 6
Формат : AC-3
Формат/Информация : Audio Coding 3
Расширение режима : CM (complete main)
Параметр Endianness формата : Big
Идентификатор кодека : A_AC3
Продолжительность : 1 ч. 43 м.
Вид битрейта : Постоянный
Битрейт : 448 Кбит/сек
Каналы : 6 каналов
Расположение каналов : Front: L C R, Side: L R, LFE
Частота : 48,0 КГц
Битовая глубина : 16 бит
Метод сжатия : С потерями
Размер потока : 333 Мбайт (6%)
Заголовок : Original AC3 448Kbps 6ch 48kHz
Язык : English
Default : Нет
Forced : Нет
Текст #1
Идентификатор : 7
Формат : UTF-8
Идентификатор кодека : S_TEXT/UTF8
Идентификатор кодека/Информация : UTF-8 Plain Text
Заголовок : Rus
Язык : Russian
Default : Да
Forced : Нет
Текст #2
Идентификатор : 8
Формат : UTF-8
Идентификатор кодека : S_TEXT/UTF8
Идентификатор кодека/Информация : UTF-8 Plain Text
Заголовок : Eng
Язык : English
Default : Нет
Forced : Нет

Сравнение

Исходник HDTV 1080i vs HDTVRip 720p vs HDTVRip 576p (2.19Гб)

Скриншоты

Скачать

Скачать торрент!

Как скачивать? · Что такое торрент? · Рейтинг и ограничения

Сайт не распространяет и не хранит электронные версии произведений, а лишь предоставляет доступ к создаваемому пользователями каталогу ссылок на торрент-файлы, которые содержат только списки хеш-сумм

[Профиль] [ЛС]
Показать сообщения:    
Ответить на тему

Текущее время: Сегодня 17:27

Часовой пояс: GMT + 4



Вы не можете начинать темы
Вы не можете отвечать на сообщения
Вы не можете редактировать свои сообщения
Вы не можете удалять свои сообщения
Вы не можете голосовать в опросах
Вы не можете прикреплять файлы к сообщениям
Вы не можете скачивать файлы