Незнайка с нашего двора (Игорь Апасян, Ирина Тарковская) [1983, детский, DVDRip-AVC]

Ответить на тему
 
Автор Сообщение

user ®

Стаж: 7 лет 7 месяцев

Сообщений: 20008

Пост Пост: #1 от 26-Мар-2014 01:45

[Цитировать]

Незнайка с нашего двора
Жанр: детский
Год выпуска: 1983
Продолжительность: 02:06:49 (2 серии)
Режиссёр: Игорь Апасян, Ирина Тарковская
В ролях: Валерий Сонгин, Мария Слидовкер, Сергей Назаров, Антон Аксаментов, Николай Лосев, Андрей Вингаватов, Артем Гегнер, Юлия Климова, Мария Попкова, Анна Ганелина и другие.
Описание: Жил — был мальчишка, которого во дворе все дразнили Незнайкой, за то, что он много фантазировал и ничего не знал наверняка. И было у Незнайки две заветных мечты — найти волшебную палочку и встретиться с волшебником. И вот однажды его мечты сбылись. Осенним вечером в город пришли волшебники и взмахом волшебной палочки перенесли Незнайку и его друзей в настоящую сказку…

Доп. информация: Обработка (фильтрация) изображения для восстановления и сохранения большего количества деталей.
Образец 43,9 Мб (sample)
Качество видео: DVDRip-AVC
Формат видео: MKV
Видео: X264, 692x572@756x572, 25 кадр/с, 2470 кбит/с
Аудио: русский, AC3, 48 Кгц, 448 кбит/с, 5.1

MediaInfo / Log

x264 log

[22.03.2014 8:21:42] x264 [info]: profile High, level 4.0
[25.03.2014 12:14:59] x264 [info]: frame I:1079 Avg QP:19.73 size: 43656 PSNR Mean Y:43.69 U:51.27 V:51.46 Avg:45.08 Global:44.55
[25.03.2014 12:15:00] x264 [info]: frame P:44883 Avg QP:19.99 size: 23908 PSNR Mean Y:42.68 U:50.13 V:50.37 Avg:44.07 Global:43.49
[25.03.2014 12:15:00] x264 [info]: frame B:144264 Avg QP:21.16 size: 8519 PSNR Mean Y:42.55 U:50.37 V:50.58 Avg:43.96 Global:43.40
[25.03.2014 12:15:00] x264 [info]: consecutive B-frames: 1.3% 2.4% 16.6% 27.4% 19.7% 27.6% 3.3% 0.8% 0.3% 0.2% 0.1%
[25.03.2014 12:15:00] x264 [info]: mb I I16..4: 10.9% 67.5% 21.6%
[25.03.2014 12:15:00] x264 [info]: mb P I16..4: 5.3% 11.3% 2.5% P16..4: 27.3% 32.5% 15.3% 3.0% 0.3% skip: 2.4%
[25.03.2014 12:15:00] x264 [info]: mb B I16..4: 1.0% 1.5% 0.3% B16..8: 30.5% 27.0% 4.8% direct: 9.5% skip:25.3% L0:26.7% L1:38.2% BI:35.1%
[25.03.2014 12:15:00] x264 [info]: 8x8 transform intra:58.1% inter:49.9%
[25.03.2014 12:15:00] x264 [info]: direct mvs spatial:100.0% temporal:0.0%
[25.03.2014 12:15:00] x264 [info]: coded y,uvDC,uvAC intra: 64.7% 86.0% 52.8% inter: 36.2% 28.0% 2.1%
[25.03.2014 12:15:00] x264 [info]: i16 v,h,dc,p: 87% 4% 5% 3%
[25.03.2014 12:15:00] x264 [info]: i8 v,h,dc,ddl,ddr,vr,hd,vl,hu: 12% 7% 13% 8% 11% 14% 9% 13% 11%
[25.03.2014 12:15:00] x264 [info]: i4 v,h,dc,ddl,ddr,vr,hd,vl,hu: 15% 16% 10% 7% 11% 13% 8% 10% 9%
[25.03.2014 12:15:00] x264 [info]: i8c dc,h,v,p: 28% 27% 27% 18%
[25.03.2014 12:15:00] x264 [info]: Weighted P-Frames: Y:28.4% UV:15.3%
[25.03.2014 12:15:00] x264 [info]: ref P L0: 46.4% 13.9% 15.6% 5.0% 3.4% 2.6% 2.5% 1.5% 1.5% 1.3% 1.3% 1.1% 1.1% 1.0% 1.1% 0.9%
[25.03.2014 12:15:00] x264 [info]: ref B L0: 89.4% 7.0% 0.9% 0.6% 0.4% 0.3% 0.3% 0.2% 0.2% 0.2% 0.1% 0.1% 0.1% 0.1% 0.1%
[25.03.2014 12:15:00] x264 [info]: ref B L1: 97.9% 2.1%
[25.03.2014 12:15:00] x264 [info]: SSIM Mean Y:0.9817362 (17.384db)
[25.03.2014 12:15:00] x264 [info]: PSNR Mean Y:42.592 U:50.320 V:50.537 Avg:43.994 Global:43.428 kb/s:2469.87
[25.03.2014 12:15:00] encoded 190226 frames, 0.70 fps, 2469.87 kb/s
Format : Matroska
File size : 2.59 GiB
Duration : 2h 6mn
Overall bit rate : 2 920 Kbps
Movie name : Незнайка с нашего двора (1983)
Encoded date : UTC 2014-03-25 20:11:00
Writing application : mkvmerge v6.8.0 ('Theme for Great Cities') 32bit built on Mar 2 2014 21:27:07
Writing library : libebml v1.3.0 + libmatroska v1.4.1
Video
ID : 1
Format : AVC
Format/Info : Advanced Video Codec
Format profile : High@L4.0
Format settings, CABAC : Yes
Format settings, ReFrames : 16 frames
Codec ID : V_MPEG4/ISO/AVC
Duration : 2h 6mn
Bit rate : 2 414 Kbps
Width : 692 pixels
Height : 572 pixels
Display aspect ratio : 4:3
Frame rate : 25.000 fps
Color space : YUV
Chroma subsampling : 4:2:0
Bit depth : 8 bits
Scan type : Progressive
Bits/(Pixel*Frame) : 0.244
Stream size : 2.14 GiB (83%)
Title : Video (~2470 kbit/s)
Writing library : x264 core 138 r2358 9e941d1
Encoding settings : cabac=1 / ref=16 / deblock=1:-2:-2 / analyse=0x3:0x133 / me=umh / subme=11 / psy=1 / psy_rd=1.00:0.25 / mixed_ref=1 / me_range=64 / chroma_me=1 / trellis=2 / 8x8dct=1 / cqm=0 / deadzone=21,11 / fast_pskip=1 / chroma_qp_offset=-4 / threads=3 / lookahead_threads=1 / sliced_threads=0 / nr=0 / decimate=1 / interlaced=0 / bluray_compat=0 / constrained_intra=0 / bframes=10 / b_pyramid=2 / b_adapt=2 / b_bias=0 / direct=3 / weightb=1 / open_gop=0 / weightp=2 / keyint=250 / keyint_min=25 / scenecut=40 / intra_refresh=0 / rc=crf / mbtree=0 / crf=19.6 / qcomp=0.80 / qpmin=0 / qpmax=69 / qpstep=4 / ip_ratio=1.10 / pb_ratio=1.10 / aq=1:1.00
Language : Russian
Audio
ID : 2
Format : AC-3
Format/Info : Audio Coding 3
Mode extension : CM (complete main)
Codec ID : A_AC3
Duration : 2h 6mn
Bit rate mode : Constant
Bit rate : 448 Kbps
Channel(s) : 6 channels
Channel positions : Front: L C R, Side: L R, LFE
Sampling rate : 48.0 KHz
Bit depth : 16 bits
Compression mode : Lossy
Stream size : 406 MiB (15%)
Title : AC3 (5.1)
Language : Russian

Скриншоты (сравнение DVD / AVC / XVID)





Скриншоты AVC (анаморф, при просмотре)



Скачать

Скачать торрент!

Как скачивать? · Что такое торрент? · Рейтинг и ограничения

Сайт не распространяет и не хранит электронные версии произведений, а лишь предоставляет доступ к создаваемому пользователями каталогу ссылок на торрент-файлы, которые содержат только списки хеш-сумм

[Профиль] [ЛС]
Показать сообщения:    
Ответить на тему

Текущее время: Сегодня 01:46

Часовой пояс: GMT + 4



Вы не можете начинать темы
Вы не можете отвечать на сообщения
Вы не можете редактировать свои сообщения
Вы не можете удалять свои сообщения
Вы не можете голосовать в опросах
Вы не можете прикреплять файлы к сообщениям
Вы не можете скачивать файлы