Похмельные игры / The Hungover Games (Джош Столберг / Josh Stolberg) [2014, США, Комедия, WEB-DLRip-AVC] MVO

Ответить на тему
 
Автор Сообщение

user ®

Стаж: 7 лет 9 месяцев

Сообщений: 20008

Пост Пост: #1 от 26-Мар-2014 01:45

[Цитировать]

Похмельные игрыThe Hungover Games
Страна: США
Жанр: Комедия
Год выпуска: 2014
Продолжительность: 01:25:34
Перевод: Профессиональный (многоголосый закадровый)
Cубтитры: нет
Оригинальная аудиодорожка: нет
Режиссер: Джош Столберг / Josh Stolberg
В ролях: Росс Нэйтан, Сэм Пэнкейк, Бен Бегли, Рассел Харпер, Джон Ливингстон, Дэмиен Брэй, Тара Рид, Джейми Кеннеди, Шанель Гейнс
Описание: После празднования предстоящей свадьбы Доуга в отеле в Лафлине, штат Невада, Брэдли, Эд и Зак приходят в себя в футуристической антиутопии, потеряв своего друга — Доуга
Доп. информация:

Качество видео: WEB-DLRip-AVC |Похмельные игры / The Hungover Games WEB-DL 720р|
Формат видео: MKV
Видео: 1024 x 576 (16:9) at 23.976 fps AVC at 2052 Кбит/сек
Аудио: AC3 Dolby Digital; 384 kbps; 6 Ch; 48 kHz

MediaInfo

General
Unique ID : 245883590979952254774752820438421557259 (0xB8FB75028D0F0435AD2267F9A6DD500B)
Complete name : F:\Фильмы\Голодные игры\The.Hungover.Games.2014.D.WEB-DL.AVC.mkv
Format : Matroska
Format version : Version 4 / Version 2
File size : 1.46 GiB
Duration : 1h 25mn
Overall bit rate : 2 435 Kbps
Encoded date : UTC 2014-03-02 22:32:33
Writing application : mkvmerge v6.1.0 ('Old Devil') built on Mar 4 2013 09:10:42
Writing library : libebml v1.3.0 + libmatroska v1.4.0
Video
ID : 1
Format : AVC
Format/Info : Advanced Video Codec
Format profile : High@L4.1
Format settings, CABAC : Yes
Format settings, ReFrames : 10 frames
Codec ID : V_MPEG4/ISO/AVC
Duration : 1h 25mn
Bit rate : 2 052 Kbps
Width : 1 024 pixels
Height : 576 pixels
Display aspect ratio : 16:9
Frame rate mode : Constant
Frame rate : 23.976 fps
Color space : YUV
Chroma subsampling : 4:2:0
Bit depth : 8 bits
Scan type : Progressive
Bits/(Pixel*Frame) : 0.145
Stream size : 1.20 GiB (82%)
Writing library : x264 core 130 r2273 b3065e6
Encoding settings : cabac=1 / ref=10 / deblock=1:-3:-3 / analyse=0x3:0x133 / me=umh / subme=11 / psy=1 / psy_rd=1.00:0.20 / mixed_ref=1 / me_range=48 / chroma_me=1 / trellis=2 / 8x8dct=1 / cqm=0 / deadzone=21,11 / fast_pskip=0 / chroma_qp_offset=-3 / threads=12 / lookahead_threads=2 / sliced_threads=0 / nr=0 / decimate=0 / interlaced=0 / bluray_compat=0 / constrained_intra=0 / bframes=7 / b_pyramid=2 / b_adapt=2 / b_bias=0 / direct=3 / weightb=1 / open_gop=0 / weightp=2 / keyint=250 / keyint_min=23 / scenecut=40 / intra_refresh=0 / rc=2pass / mbtree=0 / bitrate=2052 / ratetol=1.0 / qcomp=0.60 / qpmin=0 / qpmax=69 / qpstep=4 / cplxblur=20.0 / qblur=0.5 / ip_ratio=1.40 / pb_ratio=1.30 / aq=1:1.00
Language : English
Default : Yes
Forced : No
Audio
ID : 2
Format : AC-3
Format/Info : Audio Coding 3
Mode extension : CM (complete main)
Format settings, Endianness : Big
Codec ID : A_AC3
Duration : 1h 25mn
Bit rate mode : Constant
Bit rate : 384 Kbps
Channel(s) : 6 channels
Channel positions : Front: L C R, Side: L R, LFE
Sampling rate : 48.0 KHz
Bit depth : 16 bits
Compression mode : Lossy
Stream size : 235 MiB (16%)
Language : Russian
Default : Yes
Forced : No

Скриншот c названием фильма

Скриншоты

Скачать

Скачать торрент!

Как скачивать? · Что такое торрент? · Рейтинг и ограничения

Сайт не распространяет и не хранит электронные версии произведений, а лишь предоставляет доступ к создаваемому пользователями каталогу ссылок на торрент-файлы, которые содержат только списки хеш-сумм

[Профиль] [ЛС]
Показать сообщения:    
Ответить на тему

Текущее время: Сегодня 04:19

Часовой пояс: GMT + 4



Вы не можете начинать темы
Вы не можете отвечать на сообщения
Вы не можете редактировать свои сообщения
Вы не можете удалять свои сообщения
Вы не можете голосовать в опросах
Вы не можете прикреплять файлы к сообщениям
Вы не можете скачивать файлы