Компания Д / D Company (Дипан / Deepan, M. Падмакумар / M. Padmakumar, Винод Виджаян / Vinod Vijayan) [2013, Индия, Боевик, драма, DVDRip] Sub Rus + Original

Ответить на тему
 
Автор Сообщение

user ®

Стаж: 12 лет

Сообщений: 15124

Пост Пост: #1 от 25-Мар-2014 07:50

[Цитировать]

Компания Д / D Company
-Страна: Индия
Жанр: Боевик, драма
Год выпуска: 2013
Продолжительность: 02:02:32--Язык: Малаялам
Перевод: Субтитры
Cубтитры: Русские
Перевод и редакция: jyoti--Режиссеры:
Дипан / Deepan
M. Падмакумар / M. Padmakumar
Винод Виджаян / Vinod Vijayan-В ролях: Джаясурья, Унни Мукундан, Асиф Али, Ануп Менон, Самудира Кани, Анания--Описание: «Компания Д» - это три истории о борьбе, снятые тремя разными съемочными группами Кералы.
В 60-х годах прошлого года «Боливийский дневник» вел известный на весь мир кубинский революционер Эрнесто Че Гевара. Более тридцати лет спустя в другой части мира кто-то все еще продолжает бороться за свободу своего народа. Но свобода никому не достается легко. Ей всегда нужны жертвы. «Боливийский дневник 1995» - это честный рассказ о жертвах и палачах наших дней.
Триссур живет по криминальным законам. Здесь всем заправляют три дона. Они враждуют между собой, но в борьбе с полицией действуют сообща. Но однажды хрупкое равновесие нарушается, и тогда начинается война банд. «Банд Вадаккумнатана».
Сунил, врач-психиатр, недавно потерял жену. Джина, несчастное психически больное создание, сорвалась с балкона загородной виллы и разбилась насмерть. Через 3 дня на той же вилле нашли труп зверски убитой женщины. Следствие неминуемо обращает взгляды на хозяина виллы. «Судный день» - это один день из жизни доктора Сунила. День, который навсегда изменит его жизнь. (jyoti)-- | Кинопоиск--Качество видео: DVDRip
Формат видео: AVI-Видео: XVID, 688x288, 23.976 fps, 1247 Kbps
Аудио: АС3, 48 КHz, 6 сh, 448 Kbps
Формат субтитров: hardsub (неотключаемые, вшитые в картинку)--Сэмпл / Sample--Релиз:
Перевод, редакция: jyoti (спасибо!)
Риппер: soso4eg-- -
-

Пример субтитров

121
00:14:15,221 --> 00:14:21,717
Годами над нами издевались
из-за наших касты и цвета кожи.
122
00:14:21,794 --> 00:14:24,228
Хотя бы теперь общество должно очнуться.
123
00:14:24,330 --> 00:14:29,233
Под лозунгом нашего просвещения
власти наполняют свои сундуки.
124
00:14:29,301 --> 00:14:32,668
Чоукидар хочет, чтобы мы
подняли на них хотя бы палец.
125
00:14:32,771 --> 00:14:34,762
Братья! Они живут с комфортом...
126
00:14:34,840 --> 00:14:37,434
...но и мы имеем право жить с комфортом.
127
00:14:37,509 --> 00:14:40,637
И не думайте, что речь о буханке хлеба,
которую нам кто-то дал от щедрот души.
128
00:14:40,713 --> 00:14:44,308
Мы - люди, и нам
от рождения дано это право.
129
00:14:58,330 --> 00:15:01,265
Сколько их ни уничтожай...
130
00:15:01,333 --> 00:15:03,301
...коммунисты появляются снова.
131
00:15:05,318 --> 00:15:06,511
Карта?
- Сэр!
132
00:15:10,910 --> 00:15:12,343
Где он...
133
00:15:12,411 --> 00:15:15,175
...твой Чоукидар, который в песнях
открыто признает свои преступления.
134
00:15:15,281 --> 00:15:16,248
Я не знаю.
135
00:15:16,315 --> 00:15:18,977
Я знаю, как заставить
тебя говорить... Пошли!
136
00:15:19,251 --> 00:15:20,946
В машину его!
137
00:15:37,970 --> 00:15:39,904
Сэр, атм цилапоя!
- Что?
138
00:15:39,972 --> 00:15:41,496
Атм цилапоя!
139
00:15:53,719 --> 00:15:55,880
Товарищ, что такое "атм цилапоя"?
140
00:15:55,988 --> 00:15:58,218
Шифр, которому нас научил товарищ Джон.

-

Скриншот с названием:

Скриншоты:


-

MI

Общее
Полное имя : K:\Kompaniya.D.2013.DVDRip.XviD.BwTorrents.avi
Формат : AVI
Формат/Информация : Audio Video Interleave
Размер файла : 1,46 Гбайт
Продолжительность : 2 ч. 2 м.
Общий поток : 1704 Кбит/сек
Название фильма : Kompaniya.D.Zlo.Vernulos.2013.DVDRip.XviD.BwTorrents
Программа кодирования : VirtualDubMod 1.5.10.2 (build 2540/release)
Видео
Идентификатор : 0
Формат : MPEG-4 Visual
Профиль формата : Advanced Simple@L5
Параметр BVOP формата : 1
Параметр QPel формата : Нет
Параметр GMC формата : Без точки перехода
Параметр матрицы формата : Default (H.263)
Идентификатор кодека : XVID
Идентификатор кодека/Подсказка : XviD
Продолжительность : 2 ч. 2 м.
Битрейт : 1247 Кбит/сек
Ширина : 688 пикселей
Высота : 288 пикселей
Соотношение сторон : 2,40:1
Частота кадров : 23,976 кадра/сек
Цветовое пространство : YUV
Субдискретизация насыщенности : 4:2:0
Битовая глубина : 8 бит
Тип развёртки : Прогрессивная
Метод сжатия : С потерями
Бит/(Пиксели*Кадры) : 0.262
Размер потока : 1,07 Гбайт (73%)
Библиотека кодирования : XviD 1.2.1 (UTC 2008-12-04)
Аудио
Идентификатор : 1
Формат : AC-3
Формат/Информация : Audio Coding 3
Расширение режима : CM (complete main)
Параметр Endianness формата : Big
Идентификатор кодека : 2000
Продолжительность : 2 ч. 2 м.
Вид битрейта : Постоянный
Битрейт : 448 Кбит/сек
Каналы : 6 каналов
Расположение каналов : Front: L C R, Side: L R, LFE
Частота : 48,0 КГц
Битовая глубина : 16 бит
Метод сжатия : С потерями
Размер потока : 393 Мбайт (26%)
Выравнивание : Разделение по промежуткам
Продолжительность промежутка : 42 мс. (1,00 видеокадр)
Время предзагрузки промежутка : 500 мс.
Скачать

Скачать торрент! Компания Д / D Company (Дипан / Deepan, M. Падмакумар / M. Padmakumar, Винод Виджаян / Vinod Vijayan) [2013, Индия, Боевик, драма, DVDRip] Sub Rus + Original

Как скачивать? · Что такое торрент? · Рейтинг и ограничения

Сайт не распространяет и не хранит электронные версии произведений, а лишь предоставляет доступ к создаваемому пользователями каталогу ссылок на торрент-файлы, которые содержат только списки хеш-сумм

[Профиль] [ЛС]
Показать сообщения:    
Ответить на тему

Текущее время: Сегодня 21:40

Часовой пояс: GMT + 4



Вы не можете начинать темы
Вы не можете отвечать на сообщения
Вы не можете редактировать свои сообщения
Вы не можете удалять свои сообщения
Вы не можете голосовать в опросах
Вы не можете прикреплять файлы к сообщениям
Вы не можете скачивать файлы