У меня нет друга, или One step beyond (Алексей Балабанов) [1988, драма, короткометражный, DVDScreener]

Ответить на тему
 
Автор Сообщение

user ®

Стаж: 7 лет 7 месяцев

Сообщений: 20008

Пост Пост: #1 от 25-Мар-2014 02:05

[Цитировать]

У меня нет друга, или One step beyond
Жанр: драма, короткометражный
Год выпуска: 1988
Продолжительность: 00:23:20
Режиссёр: Алексей Балабанов
В ролях: Ольга Беляева, Игорь «Егор» Белкин, Андрей Макаров, Дмитрий Умецкий, Виктор «Пифа» Комаров, Вячеслав Бутусов, Настя Полева, Александр Пантыкин, Алексей Могилевский, Владимир Назимов, Татьяна Монахова.
Описание: Обычная советская школьница-старшеклассница, не интересующаяся современной рок-музыкой и далёкая от всяческих «тусовок», за компанию с «продвинутой» подругой попадает на концерт группы Егора Белкина (в составе группы — реальные музыканты из групп «Урфин Джюс», «Наутилус Помпилиус», «Трек», «Настя»). После концерта по приглашению Белкина она оказывается на типичной «рокерской пьянке» (с дискуссиями «о смыслах бытия», «Умецкий опять парит ноги в ванне» и т. п.), затем Белкин её соблазняет. Пережив личную драму, она приходит в школу — но «дух свободы», полученный от общения с рокерами и их музыкой, изменяет её, делая «новым» человеком, выламывающимся из серой советской обыденности.
Доп. информация: короткометражный художественный фильм, снятый в 1988 году — одна из первых работ кинорежиссёра Алексея Балабанова, в то время ассистента Свердловской киностудии. Фильм является курсовой работой, снятой во время учёбы на Высших курсах сценаристов и режиссёров. Съёмки происходили в Свердловске. В фильме приняли участие (как актёры в эпизодах и массовке, а также как авторы и исполнители музыки, вошедшей в саундтрек) многие известные свердловские рок-музыканты, члены Свердловского рок-клуба: Егор Белкин (сыгравший одну из главных ролей), Александр Пантыкин, Дмитрий Умецкий и другие, а также иные представители «бурной» культурной жизни Свердловска 1980-х годов. Второе название фильма взято от композиции в исполнении британской рок-группы Madness, звучащей в начале фильма.
Качество видео: DVDScreener с кинопленки
Формат видео: AVI
Видео: 640x352 (1.82:1), 25 fps, XviD build 50 ~2104 kbps avg, 0.37 bit/pixel
Аудио: 48 kHz, MPEG Layer 3, 2 ch, ~256.00 kbps avg

MediaInfo

General
Complete name : M:\У меня нет друга, или One step beyond - 1988.avi
Format : AVI
Format/Info : Audio Video Interleave
File size : 396 MiB
Duration : 23mn 20s
Overall bit rate : 2 370 Kbps
Writing application : VirtualDubMod 1.5.10.3 | www.virtualdub-fr.org || (build 2550/release)
Writing library : VirtualDub build 29808/release
Video
ID : 0
Format : MPEG-4 Visual
Format profile : Advanced Simple@L5
Format settings, BVOP : Yes
Format settings, QPel : No
Format settings, GMC : No warppoints
Format settings, Matrix : Default (MPEG)
Codec ID : XVID
Codec ID/Hint : XviD
Duration : 23mn 20s
Bit rate : 2 105 Kbps
Width : 640 pixels
Height : 352 pixels
Display aspect ratio : 16:9
Frame rate : 25.000 fps
Resolution : 8 bits
Colorimetry : 4:2:0
Scan type : Progressive
Bits/(Pixel*Frame) : 0.374
Stream size : 351 MiB (89%)
Writing library : XviD 1.2.1 (UTC 2008-12-04)
Audio
ID : 1
Format : MPEG Audio
Format version : Version 1
Format profile : Layer 3
Codec ID : 55
Codec ID/Hint : MP3
Duration : 23mn 20s
Bit rate mode : Constant
Bit rate : 256 Kbps
Channel(s) : 2 channels
Sampling rate : 48.0 KHz
Stream size : 42.7 MiB (11%)
Alignment : Aligned on interleaves
Interleave, duration : 40 ms (1.00 video frame)
Interleave, preload duration : 504 ms
Writing library : LAME3.98.4

Скриншот c названием фильма

Скриншоты

Скачать

Скачать торрент!

Как скачивать? · Что такое торрент? · Рейтинг и ограничения

Сайт не распространяет и не хранит электронные версии произведений, а лишь предоставляет доступ к создаваемому пользователями каталогу ссылок на торрент-файлы, которые содержат только списки хеш-сумм

[Профиль] [ЛС]
Показать сообщения:    
Ответить на тему

Текущее время: Сегодня 03:13

Часовой пояс: GMT + 4



Вы не можете начинать темы
Вы не можете отвечать на сообщения
Вы не можете редактировать свои сообщения
Вы не можете удалять свои сообщения
Вы не можете голосовать в опросах
Вы не можете прикреплять файлы к сообщениям
Вы не можете скачивать файлы