Летят журавли (Михаил Калатозов) [1957 г., драма, мелодрама, военный, DVDRip]

Ответить на тему
 
Автор Сообщение

user ®

Стаж: 7 лет 7 месяцев

Сообщений: 20008

Пост Пост: #1 от 25-Мар-2014 02:05

[Цитировать]

-Летят журавли--Год выпуска: 1957
Жанр: драма, мелодрама, военный
Продолжительность: 01:32:16--Режиссер: Михаил Калатозов--В ролях:
Татьяна Самойлова, Алексей Баталов, Василий Меркурьев, Александр Шворин, Светлана Харитонова, Константин Никитин, Валентин Зубков, Антонина Богданова, Борис Коковкин, Екатерина Куприянова, Валентина Ананьина, Кларина Фролова, Леонид Князев, Даниил Нетребин, Александр Попов, Николай Сморчков, Галина Степанова, Валентина Владимирова, Любовь Соколова, Саша Попов
--Описание:
Фильм с удивительной эмоциональной силой рассказывает о людях, в чьи судьбы безжалостно вторглась война. Не все смогли с честью вынести это испытание... В центре киноповести - трагическая история двух влюбленных, которых война разлучила навсегда...
-Доп. информация:- - Сэмпл Рип совместим с бытовыми DVD-проигрывателями.
Исходник: DVD9/Tuz77 [реставрация, "Крупный план"]--Качество видео: DVDRip
Формат видео: AVI
Видео: 528x384 (1.38:1), 25 fps, XviD build 73 ~988 kbps avg, 0.195 bit/pixel
Аудио: 48 kHz, MPEG Layer 3, 2 ch, 128.00 kbps avg-

MediaInfo

General
Complete name : \Letyat_juravli_(1957).DVDRip.XviD_[All.Films][RG].avi
Format : AVI
Format/Info : Audio Video Interleave
File size : 743 MiB
Duration : 1h 32mn
Overall bit rate : 1 126 Kbps
Movie name : Летят журавли (1957) DVDRip [All.Films][RG]
Director : |
Writing application : VirtualDubMod 1.5.10.3 | www.virtualdub-fr.org || (build 2550/release)
Video
ID : 0
Format : MPEG-4 Visual
Format profile : Advanced Simple@L5
Format settings, BVOP : 2
Format settings, QPel : No
Format settings, GMC : No warppoints
Format settings, Matrix : Custom
Codec ID : XVID
Codec ID/Hint : XviD
Duration : 1h 32mn
Bit rate : 989 Kbps
Width : 528 pixels
Height : 384 pixels
Display aspect ratio : 1.375
Frame rate : 25.000 fps
Color space : YUV
Chroma subsampling : 4:2:0
Bit depth : 8 bits
Scan type : Progressive
Compression mode : Lossy
Bits/(Pixel*Frame) : 0.195
Stream size : 653 MiB (88%)
Writing library : XviD 73
Audio
ID : 1
Format : MPEG Audio
Format version : Version 1
Format profile : Layer 3
Codec ID : 55
Codec ID/Hint : MP3
Duration : 1h 32mn
Bit rate mode : Constant
Bit rate : 128 Kbps
Channel count : 2 channels
Sampling rate : 48.0 KHz
Compression mode : Lossy
Stream size : 84.3 MiB (11%)
Alignment : Aligned on interleaves
Interleave, duration : 40 ms (1.00 video frame)
Interleave, preload duration : 504 ms
Writing library : LAME3.99r
Encoding settings : -m s -V 4 -q 0 -lowpass 17 -b 128

Скриншоты


Скачать

Скачать торрент!

Как скачивать? · Что такое торрент? · Рейтинг и ограничения

Сайт не распространяет и не хранит электронные версии произведений, а лишь предоставляет доступ к создаваемому пользователями каталогу ссылок на торрент-файлы, которые содержат только списки хеш-сумм

[Профиль] [ЛС]
Показать сообщения:    
Ответить на тему

Текущее время: Сегодня 23:14

Часовой пояс: GMT + 4



Вы не можете начинать темы
Вы не можете отвечать на сообщения
Вы не можете редактировать свои сообщения
Вы не можете удалять свои сообщения
Вы не можете голосовать в опросах
Вы не можете прикреплять файлы к сообщениям
Вы не можете скачивать файлы