Мистер Гонконг / Чудеса / Крёстный Отец Из Кантона / Крёстный Отец Из Гонконга / Ji Ji / Miracles / The Canton Godfather (Джеки Чан / Jackie Chan) [1989, Гонконг, комедия, боевик, BDRip] DVO (Екатеринбург Арт) + Original (Chi)

Ответить на тему
 
Автор Сообщение

user ®

Стаж: 13 лет

Сообщений: 15071

Пост Пост: #1 от 24-Мар-2014 19:45

[Цитировать]

Мистер Гонконг / Чудеса / Крёстный Отец Из Кантона / Крёстный Отец Из Гонконга / Ji Ji / Miracles / The Canton Godfather
Страна: Гонконг
Жанр: комедия, боевик
Год выпуска: 1989
Продолжительность: 02:07:05
Перевод: Профессиональный (двухголосый закадровый) Екатеринбург Арт
Cубтитры: нет
Оригинальная аудиодорожка: Китайский
Режиссер: Джеки Чан / Jackie Chan
В ролях: Джеки Чан, Анита Муи, Ах Леи Гуа, Чун Хсианг Ко, Ма У, Билл Тун, Кенни Би, Энтони Карпио, Энтони Чан, Чинг-Ван Чан
Описание: В поисках лучшей жизни и без гроша в кармане Чарли приезжает в Гонконг. Свои последние центы он отдает бедной торговке за цветок розы, который должен принести ему удачу. И «счастливый» случай не заставил себя ждать. Чарли становится невольным участником перестрелки двух мафиозных кланов и выносит из-под огня главного босса одной из гангстерских группировок.
Умирая, главарь мафии назначает Чарли своим наследником и Большим Братом своего клана. В роли «крестного отца» доброй половины криминального Гонконга Чарли приходится проявлять чудеса ловкости и изобретательности…
Доп. информация:
Перевод Екатеринбург Арт с лицензионной VHS. Текст Читали Алексей Инжеватов и Наталья Гурзо.
Во время начальных титров и до 00:01:06 звучит такой же перевод, взятый с контакта из видеозаписи с канала M1 (качество VHS).
Поскольку перевод был под американскую версию, в некоторых диалогах у гонконгской версии вставлен перевод от студии Инис.
Качество видео: BDRip
Формат видео: AVI
Видео: XviD, 720x304 (2,35:1), 23.976 fps, 1856 kbps avg
Аудио:
1 - 48 khz, AC3 Dolby Digital, 2/0 (L,R) ch, ~192 kbps [Екатеринбург Арт] VHSRip
2 - 48 khz, AC3 Dolby Digital, 3/2 (L,R) ch, ~384 kbps [Chinese]

MediaInfo

Общее
Полное имя : E:\Альберт\Downloads\Мистер Гонконг.avi
Формат : AVI
Формат/Информация : Audio Video Interleave
Профиль формата : OpenDML
Размер файла : 2,17 Гбайт
Продолжительность : 2 ч. 7 м.
Общий поток : 2449 Кбит/сек
Название фильма : Чудеса
Режиссёр : derdevil13
Программа кодирования : VirtualDubMod 1.5.10.2 (build 2540/release)
Библиотека кодирования : VirtualDubMod build 2540/release
Видео
Идентификатор : 0
Формат : MPEG-4 Visual
Профиль формата : Advanced Simple@L5
Параметр BVOP формата : 2
Параметр QPel формата : Нет
Параметр GMC формата : Без точки перехода
Параметр матрицы формата : Выборочная
Идентификатор кодека : XVID
Идентификатор кодека/Подсказка : XviD
Продолжительность : 2 ч. 7 м.
Битрейт : 1856 Кбит/сек
Ширина : 720 пикселей
Высота : 304 пикселя
Соотношение сторон : 2,35:1
Частота кадров : 23,976 кадра/сек
Цветовое пространство : YUV
Субдискретизация насыщенности : 4:2:0
Битовая глубина : 8 бит
Тип развёртки : Прогрессивная
Метод сжатия : С потерями
Бит/(Пиксели*Кадры) : 0.354
Размер потока : 1,65 Гбайт (76%)
Библиотека кодирования : XviD 73
Аудио #1
Идентификатор : 1
Формат : AC-3
Формат/Информация : Audio Coding 3
Расширение режима : CM (complete main)
Параметр Endianness формата : Big
Идентификатор кодека : 2000
Продолжительность : 2 ч. 6 м.
Вид битрейта : Постоянный
Битрейт : 192 Кбит/сек
Каналы : 2 канала
Расположение каналов : Front: L R
Частота : 48,0 КГц
Битовая глубина : 16 бит
Метод сжатия : С потерями
Размер потока : 174 Мбайт (8%)
Выравнивание : Разделение по промежуткам
Продолжительность промежутка : 42 мс. (1,00 видеокадр)
Время предзагрузки промежутка : 500 мс.
Аудио #2
Идентификатор : 2
Формат : AC-3
Формат/Информация : Audio Coding 3
Расширение режима : CM (complete main)
Параметр Endianness формата : Big
Идентификатор кодека : 2000
Продолжительность : 2 ч. 6 м.
Вид битрейта : Постоянный
Битрейт : 384 Кбит/сек
Каналы : 6 каналов
Расположение каналов : Front: L C R, Side: L R, LFE
Частота : 48,0 КГц
Битовая глубина : 16 бит
Метод сжатия : С потерями
Размер потока : 349 Мбайт (16%)
Выравнивание : Разделение по промежуткам
Продолжительность промежутка : 42 мс. (1,00 видеокадр)
Время предзагрузки промежутка : 500 мс.

Скриншот c названием фильма

Скриншоты

Скачать

Скачать торрент! Мистер Гонконг / Чудеса / Крёстный Отец Из Кантона / Крёстный Отец Из Гонконга / Ji Ji / Miracles / The Canton Godfather (Джеки Чан / Jackie Chan) [1989, Гонконг, комедия, боевик, BDRip] DVO (Екатеринбург Арт) + Original (Chi)

Как скачивать? · Что такое торрент? · Рейтинг и ограничения

Сайт не распространяет и не хранит электронные версии произведений, а лишь предоставляет доступ к создаваемому пользователями каталогу ссылок на торрент-файлы, которые содержат только списки хеш-сумм

[Профиль] [ЛС]
Показать сообщения:    
Ответить на тему

Текущее время: Сегодня 17:38

Часовой пояс: GMT + 4



Вы не можете начинать темы
Вы не можете отвечать на сообщения
Вы не можете редактировать свои сообщения
Вы не можете удалять свои сообщения
Вы не можете голосовать в опросах
Вы не можете прикреплять файлы к сообщениям
Вы не можете скачивать файлы