72 метра (Владимир Хотиненко) [2004, боевик, триллер, драма, DVBRip-AVC] полная версия

Ответить на тему
 
Автор Сообщение

user ®

Стаж: 7 лет 7 месяцев

Сообщений: 20008

Пост Пост: #1 от 24-Мар-2014 19:45

[Цитировать]

72 метра
Полная версия
Жанр: боевик, триллер, драма
Год выпуска: 2004
Продолжительность: 02:23:03
Режиссёр: Владимир Хотиненко
В ролях: Сергей Маковецкий, Марат Башаров, Андрей Краско, Дмитрий Ульянов, Чулпан Хаматова, Станислав Никольский, Сергей Гармаш, Владислав Галкин, Игорь Ливанов, Артем Михалков
Описание: Офицеры ВМФ, капитан-лейтенанты Пётр Орлов (Марат Башаров) и Иван Муравьёв (Дмитрий Ульянов), служат на подлодке «Славянка» уже давно. Когда-то они были лучшими друзьями. В 1986 году вместе прибыли в Севастополь для прохождения службы. Там же встретили красивую девушку и оба влюбились в неё с первого взгляда. Нелли (Чулпан Хаматова) выбрала Ивана. Тогда дружба офицеров дала трещину.
В начале 1990-х годов, после распада СССР и раздела советского флота, экипаж «Славянки», отказавшись принять украинскую присягу, был переведён на Северный Флот. С тех пор и жизнь, и служба идут своим чередом. И очередной выход в море — боевые плановые учения. Командир корабля, капитан первого ранга Геннадий Янычар (Андрей Краско), оглашает поставленную задачу. Уничтожив торпедной атакой условного противника и уйдя от преследования, подводная лодка должна на время исчезнуть из поля зрения и остаться незамеченной в течение 24 часов. На борту также присутствует гражданский врач Черненко (Сергей Маковецкий).
Никто в учебном центре не знает, в какую сторону будет двигаться подлодка. И никто не предполагает, что случится беда: волны от взрывов растревожат «спящую» со времён Великой Отечественной войны морскую мину, которая медленно тронется навстречу субмарине, в результате взрыва которой лодка ляжет на грунт и незатопленным останется лишь один отсек. При взрыве гибнут несколько членов экипажа, в том числе командир корабля. Черненко, Орлов и матрос Молодой оказываются в полузатопленном отсеке, но им удаётся пробиться в непострадавший отсек Ивана Муравьёва, где находятся и другие члены экипажа. Подводники ищут способ спастись и решают выбраться в водолазных скафандрах через торпедные аппараты, но выясняется, что из-за халатности старшего мичмана Крауза (Сергей Гармаш) исправен лишь один изолирующий дыхательный аппарат ИДА-59. Крауз пытается застрелиться, но сослуживцы его обезоруживают. В итоге команда принимает решение отправить наверх Черненко, и тот успешно выбирается на берег. В свою очередь, членам экипажа «Славянки» не остаётся ничего, кроме как ждать спасателей, но прибудут они вовремя или нет, остаётся неизвестным.
Качество видео: DVBRip-AVC
Формат видео: MKV
Видео: 692x404@738х404, (1,85:1), 25.000 fps, AVC, ~1995 Kbps
Аудио: MP2, 192 Kbps, 2 ch, 48 KHz

MediaInfo

raw [info]: 692x404p 16:15 @ 25/1 fps (cfr)
x264 [info]: using SAR=16/15
x264 [info]: using cpu capabilities: MMX2 SSE2Fast SSSE3 SSE4.2 AVX
x264 [info]: profile High, level 4.1
x264 [info]: frame I:1556 Avg QP:12.93 size: 54124
x264 [info]: frame P:63192 Avg QP:15.17 size: 20148
x264 [info]: frame B:149830 Avg QP:17.30 size: 5227-Общее
Уникальный идентификатор : 191936765602780473607316252869872000048 (0x9065AD2A89A2D821AC0846A2D7A71C30)
Полное имя : D:\72 метра_2004-DVBRip-AVC.mkv
Формат : Matroska
Версия формата : Version 2
Размер файла : 2,19 Гбайт
Продолжительность : 2 ч. 23 м.
Общий поток : 2189 Кбит/сек
Дата кодирования : UTC 2014-03-24 12:56:42
Программа кодирования : mkvmerge v5.1.0 ('And so it goes') built on Nov 28 2011 23:58:28
Библиотека кодирования : libebml v1.2.3 + libmatroska v1.3.0
Видео
Идентификатор : 1
Формат : AVC
Формат/Информация : Advanced Video Codec
Профиль формата : High@L4.1
Параметр CABAC формата : Да
Параметр ReFrames формата : 15 кадров
Идентификатор кодека : V_MPEG4/ISO/AVC
Продолжительность : 2 ч. 23 м.
Битрейт : 1995 Кбит/сек
Ширина : 692 пикселя
Высота : 404 пикселя
Соотношение сторон : 1,85:1
Режим частоты кадров : Постоянный
Частота кадров : 25,000 кадров/сек
Цветовое пространство : YUV
Субдискретизация насыщенности : 4:2:0
Битовая глубина : 8 бит
Тип развёртки : Прогрессивная
Бит/(Пиксели*Кадры) : 0.285
Размер потока : 1,95 Гбайт (89%)
Библиотека кодирования : x264 core 142 r2409 d6b4e63
Настройки программы : cabac=1 / ref=15 / deblock=1:-2:-2 / analyse=0x3:0x133 / me=umh / subme=11 / psy=1 / psy_rd=1.00:0.05 / mixed_ref=1 / me_range=24 / chroma_me=1 / trellis=2 / 8x8dct=1 / cqm=0 / deadzone=21,11 / fast_pskip=0 / chroma_qp_offset=-3 / threads=12 / lookahead_threads=2 / sliced_threads=0 / nr=0 / decimate=0 / interlaced=0 / bluray_compat=0 / constrained_intra=0 / bframes=7 / b_pyramid=2 / b_adapt=2 / b_bias=0 / direct=3 / weightb=1 / open_gop=0 / weightp=2 / keyint=250 / keyint_min=25 / scenecut=40 / intra_refresh=0 / rc_lookahead=60 / rc=2pass / mbtree=1 / bitrate=1995 / ratetol=1.0 / qcomp=0.65 / qpmin=0 / qpmax=39 / qpstep=4 / cplxblur=20.0 / qblur=0.5 / ip_ratio=1.30 / aq=1:1.00
Язык : English
Default : Да
Forced : Нет
Основные цвета : BT.601 PAL
Характеристики трансфера : BT.470 System B, BT.470 System G
Коэффициенты матрицы : BT.601
Аудио
Идентификатор : 2
Формат : MPEG Audio
Версия формата : Version 1
Профиль формата : Layer 2
Идентификатор кодека : A_MPEG/L2
Идентификатор кодека/Подсказка : MP2
Продолжительность : 2 ч. 23 м.
Вид битрейта : Постоянный
Битрейт : 192 Кбит/сек
Каналы : 2 канала
Частота : 48,0 КГц
Метод сжатия : С потерями
Размер потока : 196 Мбайт (9%)
Язык : Russian
Default : Да
Forced : Нет
Скачать

Скачать торрент!

Как скачивать? · Что такое торрент? · Рейтинг и ограничения

Сайт не распространяет и не хранит электронные версии произведений, а лишь предоставляет доступ к создаваемому пользователями каталогу ссылок на торрент-файлы, которые содержат только списки хеш-сумм

[Профиль] [ЛС]
Показать сообщения:    
Ответить на тему

Текущее время: Сегодня 06:22

Часовой пояс: GMT + 4



Вы не можете начинать темы
Вы не можете отвечать на сообщения
Вы не можете редактировать свои сообщения
Вы не можете удалять свои сообщения
Вы не можете голосовать в опросах
Вы не можете прикреплять файлы к сообщениям
Вы не можете скачивать файлы