Эдисон и Лео / Edison & Leo (Нил Барнс / Neil Burns) [2008, фэнтези, комедия, BDRip] MVO

Ответить на тему
 
Автор Сообщение

user ®

Стаж: 12 лет

Сообщений: 15145

Пост Пост: #1 от 24-Мар-2014 11:35

[Цитировать]

Эдисон и Лео / Edison & Leo
Страна: Канада
Жанр: фэнтези, комедия
Продолжительность: 01:20:25
Год выпуска: 2008
Перевод: Профессиональный (многоголосый закадровый)
Русские субтитры: нет
Режиссёр: Нил Барнс / Neil Burns
Роли озвучивали: Пауэрс Бут, Грегори Смит, Карли Поуп, Джей Бразо, Скотт МакНил, Жаклин Самуда, Бен Коттон, Венус Терцо, Куинн Лорд, Эйдан Драммонд
Описание: Весь мир знает великого изобретателя Томаса Эдисона, человека неординарного, талантливого и успешного. Создатели истории «Эдисон и Лео» весьма вольно обошлись с биографией американского ученого и предпринимателя, но обеспечили себе железное алиби: персонажа, очень напоминающего человека, подарившего миру множество полезных изобретений, канадские мультипликаторы назвали…Джордж Ти Эдисон и представили его как человека, готового на все, лишь бы обойти конкурентов.
Упорно работая в своем огромном замке над созданием долговечной лампы накаливания, изобретатель Эдисон много экспериментирует с разными материалами: в качестве нити он тестирует и кокосовые волоски, и бамбук и даже волос из бороды своего помощника. Времени побыть с детьми у отца семейства совсем нет, что очень огорчает его младшего сына Лео. Мальчик просит разрешения присутствовать на обеде с гостями, прибывшими издалека, но Эдисон планирует обсудить с восточными визитерами одно дельце, которое лучше держать в секрете…
Семпл: http://multi-up.com/961478
Качество: BDRip (исх. BDRemux 1080p)
Формат: AVI
Видео: MPEG-4 Visual, 720 x 400, ~ 1798 kbps
Аудио: Русский: AC3 Dolby Digital, 2/0 (L,R) ch, ~192 kbps
Аудио 2: Английский: AC3 Dolby Digital, 3/2 (L,C,R,l,r) + LFE ch, ~448 kbps
Субтитры: отсутствуют

Подробные технические данные

I:\Эдисон и Лео\Edison & Leo.2008.BDRip.avi General Complete name : I:\Эдисон и Лео\Edison & Leo.2008.BDRip.avi Format : AVI Format/Info : Audio Video Interleave Format profile : OpenDML File size : 1.38 GiB Duration : 1h 20mn Overall bit rate : 2 457 Kbps Writing application : Lavf51.12.1 Video #0 ID : 0 Format : MPEG-4 Visual Format profile : Simple@L1 Format settings, BVOP : No Format settings, QPel : No Format settings, GMC : No warppoints Format settings, Matrix : Default (H.263) Codec ID : FMP4 Duration : 1h 20mn Bit rate : 1 798 Kbps Width : 720 pixels Height : 400 pixels Display aspect ratio : 16:9 Frame rate : 23.976 fps Color space : YUV Chroma subsampling : 4:2:0 Bit depth : 8 bits Scan type : Progressive Compression mode : Lossy Bits/(Pixel*Frame) : 0.260 Stream size : 1.01 GiB (73%) Writing library : Lavc51.40.4 Audio #1 ID : 1 Format : AC-3 Format/Info : Audio Coding 3 Mode extension : CM (complete main) Format settings, Endianness : Big Codec ID : 2000 Duration : 1h 20mn Bit rate mode : Constant Bit rate : 192 Kbps Channel count : 2 channels Channel positions : Front: L R Sampling rate : 48.0 KHz Bit depth : 16 bits Compression mode : Lossy Stream size : 110 MiB (8%) Alignment : Aligned on interleaves Interleave, duration : 32 ms (0.77 video frame) Interleave, preload duration : 32 ms Audio #2 ID : 2 Format : AC-3 Format/Info : Audio Coding 3 Mode extension : CM (complete main) Format settings, Endianness : Big Codec ID : 2000 Duration : 1h 20mn Bit rate mode : Constant Bit rate : 448 Kbps Channel count : 6 channels Channel positions : Front: L C R, Side: L R, LFE Sampling rate : 48.0 KHz Bit depth : 16 bits Compression mode : Lossy Stream size : 258 MiB (18%) Alignment : Aligned on interleaves Interleave, duration : 32 ms (0.77 video frame) Interleave, preload duration : 32 ms

Скриншоты

Скачать

Скачать торрент! Эдисон и Лео / Edison & Leo (Нил Барнс / Neil Burns) [2008, фэнтези, комедия, BDRip] MVO

Как скачивать? · Что такое торрент? · Рейтинг и ограничения

Сайт не распространяет и не хранит электронные версии произведений, а лишь предоставляет доступ к создаваемому пользователями каталогу ссылок на торрент-файлы, которые содержат только списки хеш-сумм

[Профиль] [ЛС]
Показать сообщения:    
Ответить на тему

Текущее время: Сегодня 21:36

Часовой пояс: GMT + 4



Вы не можете начинать темы
Вы не можете отвечать на сообщения
Вы не можете редактировать свои сообщения
Вы не можете удалять свои сообщения
Вы не можете голосовать в опросах
Вы не можете прикреплять файлы к сообщениям
Вы не можете скачивать файлы