Четверо 2 / Si Da Ming Bu 2 (Гордон Чан / Gordon Chan, Джанет Чун / Janet Chun) [2013, Китай, Гонконг, Фэнтези, боевик, приключения, HDRip] DVO (GREEN TEA)

Ответить на тему
 
Автор Сообщение

user ®

Стаж: 11 лет

Сообщений: 15151

Пост Пост: #1 от 24-Мар-2014 08:25

[Цитировать]

--Четверо 2 / Si Da Ming Bu 2-- Страна: Китай, Гонконг
Жанр: Фэнтези, боевик, приключения
Год выпуска: 2013
Продолжительность: 01:56:33-Перевод: Любительский (двухголосый закадровый) |GREEN TEA|
Cубтитры: нет
Режиссер: Гордон Чан / Gordon Chan, Джанет Чун / Janet Chun-В ролях: Чао Ден, Лю Ифэй, Колин Чоу, Рональд Чэн, Энтони Вонг Чау-Санг, Чэнь Тайшэн, Янь Лю, Кен Ло, Цзян Иянь, Тэнг Шерен
Описание: Во второй части «Четверо» 4 констебля из «Небесной полиции»: Бесстрастная, Железнорукий, Жизнекрад и Хладнокровный снова ведут расследование. При раскрытии дела об убийстве в предместьи, констебли наталкиваются на новые факты в убийстве семьи Бесстрастной 12 лет назад. Чем дальше «Небесные» продвигаются в расследовании, тем больше открывается тайн, заставляющих их сделать выбор между прошлым и будущим…- -Качество видео: HDRip |исходник неизвестен|
Формат видео: AVI
Видео: XviD, 1330 kb/s, 720x304 , 23.976 fps
Аудио: АС3, 48 KHz, 6 ch, 448 kbit/s
-

MediaInfo

Общее
Полное имя : F:\BD torrent\mytorrentsup\Chetvero.2.2013.L2.HDRip.1.46.avi
Формат : AVI
Формат/Информация : Audio Video Interleave
Размер файла : 1,46 Гбайт
Продолжительность : 1 ч. 57 м.
Общий поток : 1787 Кбит/сек
Программа кодирования : VirtualDubMod 1.5.10.3 | www.virtualdub-fr.org || (build 2550/release)
Библиотека кодирования : VirtualDubMod build 2550/release
Видео
Идентификатор : 0
Формат : MPEG-4 Visual
Профиль формата : Advanced Simple@L5
Параметр BVOP формата : 2
Параметр QPel формата : Нет
Параметр GMC формата : Без точки перехода
Параметр матрицы формата : Default (MPEG)
Идентификатор кодека : XVID
Идентификатор кодека/Подсказка : XviD
Продолжительность : 1 ч. 57 м.
Битрейт : 1330 Кбит/сек
Ширина : 720 пикселей
Высота : 304 пикселя
Соотношение сторон : 2,35:1
Частота кадров : 23,976 кадра/сек
Цветовое пространство : YUV
Субдискретизация насыщенности : 4:2:0
Битовая глубина : 8 бит
Тип развёртки : Прогрессивная
Метод сжатия : С потерями
Бит/(Пиксели*Кадры) : 0.253
Размер потока : 1,09 Гбайт (74%)
Библиотека кодирования : XviD 1.2.1 (UTC 2008-12-04)
Аудио
Идентификатор : 1
Формат : AC-3
Формат/Информация : Audio Coding 3
Расширение режима : CM (complete main)
Параметр Endianness формата : Big
Идентификатор кодека : 2000
Продолжительность : 1 ч. 57 м.
Вид битрейта : Постоянный
Битрейт : 448 Кбит/сек
Каналы : 6 каналов
Расположение каналов : Front: L C R, Side: L R, LFE
Частота : 48,0 КГц
Битовая глубина : 16 бит
Метод сжатия : С потерями
Размер потока : 375 Мбайт (25%)
Выравнивание : Разделение по промежуткам
Продолжительность промежутка : 42 мс. (1,00 видеокадр)
Время предзагрузки промежутка : 500 мс.

Скриншот c названием фильма

Скриншоты


Скачать

Скачать торрент! Четверо 2 / Si Da Ming Bu 2 (Гордон Чан / Gordon Chan, Джанет Чун / Janet Chun) [2013, Китай, Гонконг, Фэнтези, боевик, приключения, HDRip] DVO (GREEN TEA)

Как скачивать? · Что такое торрент? · Рейтинг и ограничения

Сайт не распространяет и не хранит электронные версии произведений, а лишь предоставляет доступ к создаваемому пользователями каталогу ссылок на торрент-файлы, которые содержат только списки хеш-сумм

[Профиль] [ЛС]
Показать сообщения:    
Ответить на тему

Текущее время: Сегодня 11:14

Часовой пояс: GMT + 4



Вы не можете начинать темы
Вы не можете отвечать на сообщения
Вы не можете редактировать свои сообщения
Вы не можете удалять свои сообщения
Вы не можете голосовать в опросах
Вы не можете прикреплять файлы к сообщениям
Вы не можете скачивать файлы