Этот неловкий момент / That Awkward Moment (Том Гормикэн / Tom Gormican) [2014, США, Мелодрама, комедия, TeleSynch] Dub

Ответить на тему
 
Автор Сообщение

user ®

Стаж: 7 лет 7 месяцев

Сообщений: 20008

Пост Пост: #1 от 24-Мар-2014 08:25

[Цитировать]

Этот неловкий момент / That Awkward Moment-«Когда ты понимаешь: добиться многого,
значит: мыслить по-крупному»
-
Страна: США
Студия: Ninjas Runnin' Wild Productions, Treehouse Pictures
Жанр: Мелодрама, комедия
Год выпуска: 2014
Продолжительность: 01:34:24
Перевод: Профессиональный (дублированный)
Cубтитры: Отсутствуют
Оригинальная аудиодорожка: нет-Режиссер: Том Гормикэн / Tom Gormican
Продюсер: Скотт Аверсано, Джастин Наппи, Эндрю О’Коннор-В ролях: Зак Эфрон, Майлз Теллер, Майкл Б. Джордан, Имоджен Путс, Маккензи Дэвис, Джессика Лукас, Эддисон Тимлин, Джош Пэйс, Эвелина Обоза, Карен Людви-Описание: Джейсон, Дэниел и Майкл — типичные обитатели Манхеттена, красивые остроумные парни. После того, как одного из них бросает подружка, они клянутся больше никогда не заводить с девушками серьезных отношений. Но очень скоро, после кучи «неловких моментов», они встречают настоящую любовь. И как теперь быть с дружеской сделкой?-Дата мировой премьеры: 27 января 2014
Дата российской премьеры: 6 февраля 2014, «Парадиз»
Дата выхода DVD релиза: 22 апреля 2014, «Парадиз / Активижен»- -Качество видео: TeleSynch
Формат видео: AVI
Видео: 720x304 (2.37:1), 23.976 fps, XviD build 50, 1806 kbps avg, 0.34 bit/pixel
Аудио: 48 kHz, AC3 Dolby Digital, 2/0 (L,R) ch, 256 kbps-

MediaInfo

General
Complete name                            : C:\Desktop\Jetot.nelovkij.moment.2014.D.TS.avi
Format                                   : AVI
Format/Info                              : Audio Video Interleave
Format profile                           : OpenDML
Format settings                          : rec
File size                                : 1.36 GiB
Duration                                 : 1h 34mn
Overall bit rate                         : 2 069 Kbps
Movie name                               : Этот неловкий момент Релиз:  СПАМ
Writing application                      : AVI-Mux GUI 1.17.8.3, Feb 16 201019:42:50
Video
ID                                       : 0
Format                                   : MPEG-4 Visual
Format profile                           : Advanced Simple@L5
Format settings, BVOP                    : 2
Format settings, QPel                    : No
Format settings, GMC                     : No warppoints
Format settings, Matrix                  : Default (H.263)
Codec ID                                 : XVID
Codec ID/Hint                            : XviD
Duration                                 : 1h 34mn
Bit rate                                 : 1 808 Kbps
Width                                    : 720 pixels
Height                                   : 304 pixels
Display aspect ratio                     : 2.40:1
Frame rate                               : 23.976 fps
Color space                              : YUV
Chroma subsampling                       : 4:2:0
Bit depth                                : 8 bits
Scan type                                : Progressive
Compression mode                         : Lossy
Bits/(Pixel*Frame)                       : 0.345
Stream size                              : 1.19 GiB (87%)
Writing library                          : XviD 1.2.1 (UTC 2008-12-04)
Audio
ID                                       : 1
Format                                   : AC-3
Format/Info                              : Audio Coding 3
Mode extension                           : CM (complete main)
Format settings, Endianness              : Big
Codec ID                                 : 2000
Duration                                 : 1h 34mn
Bit rate mode                            : Constant
Bit rate                                 : 256 Kbps
Channel(s)                               : 2 channels
Channel positions                        : Front: L R
Sampling rate                            : 48.0 KHz
Bit depth                                : 16 bits
Compression mode                         : Lossy
Stream size                              : 173 MiB (12%)
Alignment                                : Aligned on interleaves
Interleave, duration                     : 64 ms (1.53 video frames)
Interleave, preload duration             : 192 ms

Скриншот c названием фильма

Скриншоты

-
Скачать

Скачать торрент!

Как скачивать? · Что такое торрент? · Рейтинг и ограничения

Сайт не распространяет и не хранит электронные версии произведений, а лишь предоставляет доступ к создаваемому пользователями каталогу ссылок на торрент-файлы, которые содержат только списки хеш-сумм

[Профиль] [ЛС]
Показать сообщения:    
Ответить на тему

Текущее время: Сегодня 02:14

Часовой пояс: GMT + 4



Вы не можете начинать темы
Вы не можете отвечать на сообщения
Вы не можете редактировать свои сообщения
Вы не можете удалять свои сообщения
Вы не можете голосовать в опросах
Вы не можете прикреплять файлы к сообщениям
Вы не можете скачивать файлы