Need for Speed: Жажда скорости / Need for Speed (Скотт Во / Scott Waugh) [2014, США, Боевик, триллер, криминал, CAMRip] Dub + Sub Spa

Ответить на тему
 
Автор Сообщение

user ®

Стаж: 7 лет 7 месяцев

Сообщений: 20008

Пост Пост: #1 от 24-Мар-2014 08:25

[Цитировать]

Need for Speed: Жажда скорости / Need for Speed-«Тормоза придумал трус»- Страна: США
Студия: DreamWorks SKG, Electronic Arts, Reliance Entertainment, Bandito Brothers
Жанр: Боевик, триллер, криминал
Год выпуска: 2014
Продолжительность: 02:01:50
Перевод: Профессиональный (дублированный)
Cубтитры: испанские(Вшитые не отключаемые)
Оригинальная аудиодорожка: нет-Режиссер: Скотт Во / Scott Waugh
Продюсер: Джон Гэйтинс, Патрик О’Брайэн, Марк Суриа-В ролях: Дакота Джонсон, Скотт Мескади, Ник Чинланд, Майкл Китон, Рамон Родригес, Доминик Купер, Имоджен Путс, Рами Малек, Сэр Маджор, Аарон Пол-Описание: История Тоби Маршалла, гениального автомеханика, чьей единственной отдушиной является участие в подпольных гонках. Чтобы сохранить семейную мастерскую, Тоби вынужден взять в партнеры богатого и заносчивого бывшего гонщика NASCAR Дино Брюстера. Когда дела Тоби наконец-то начинают идти в гору, Дино подставляет партнера, и Тоби обвиняют в преступлении, которого он не совершал. Спустя два года Тоби выходит из тюрьмы с мыслью о мести. Чтобы достичь своей цели, ему придется совершить невозможное и доказать, что даже в мире броских суперкаров самый невзрачный гонщик может финишировать первым.-Дата мировой премьеры: 12 марта 2014
Дата российской премьеры: 13 марта 2014, «WDSSPR»
Дата выхода DVD релиза: 10 июня 2014, «Уолт Дисней Компани СНГ»- -Качество видео: CAMRip
Формат видео: AVI
Видео: 720x304 (2.37:1), 25 fps, XviD build 73, 1471 kbps avg, 0.27 bit/pixel
Аудио: 44.100 kHz, MPEG Layer 3, 2 ch, 128.00 kbps avg-

MediaInfo

General
Complete name                            : C:\Desktop\NFS.Jajda.Skorosti.2014.D.CAMRip.1400MB.avi
Format                                   : AVI
Format/Info                              : Audio Video Interleave
File size                                : 1.37 GiB
Duration                                 : 2h 1mn
Overall bit rate mode                    : Variable
Overall bit rate                         : 1 612 Kbps
Writing application                      : VirtualDubMod 1.5.10.3 | www.virtualdub-fr.org || (build 2550/release)
Writing library                          : VirtualDubMod build 2550/release
Video
ID                                       : 0
Format                                   : MPEG-4 Visual
Format profile                           : Advanced Simple@L5
Format settings, BVOP                    : 2
Format settings, QPel                    : No
Format settings, GMC                     : No warppoints
Format settings, Matrix                  : Default (MPEG)
Codec ID                                 : XVID
Codec ID/Hint                            : XviD
Duration                                 : 2h 1mn
Bit rate                                 : 1 472 Kbps
Width                                    : 720 pixels
Height                                   : 304 pixels
Display aspect ratio                     : 2.35:1
Frame rate                               : 25.000 fps
Color space                              : YUV
Chroma subsampling                       : 4:2:0
Bit depth                                : 8 bits
Scan type                                : Progressive
Compression mode                         : Lossy
Bits/(Pixel*Frame)                       : 0.269
Stream size                              : 1.25 GiB (91%)
Writing library                          : XviD 73
Audio
ID                                       : 1
Format                                   : MPEG Audio
Format version                           : Version 1
Format profile                           : Layer 3
Codec ID                                 : 55
Codec ID/Hint                            : MP3
Duration                                 : 2h 1mn
Bit rate mode                            : Variable
Bit rate                                 : 128 Kbps
Channel(s)                               : 2 channels
Sampling rate                            : 44.1 KHz
Compression mode                         : Lossy
Stream size                              : 112 MiB (8%)
Alignment                                : Aligned on interleaves
Interleave, duration                     : 26 ms (0.65 video frame)
Interleave, preload duration             : 502 ms

Скриншот c названием фильма

-
Скачать

Скачать торрент!

Как скачивать? · Что такое торрент? · Рейтинг и ограничения

Сайт не распространяет и не хранит электронные версии произведений, а лишь предоставляет доступ к создаваемому пользователями каталогу ссылок на торрент-файлы, которые содержат только списки хеш-сумм

[Профиль] [ЛС]
Показать сообщения:    
Ответить на тему

Текущее время: Сегодня 14:29

Часовой пояс: GMT + 4



Вы не можете начинать темы
Вы не можете отвечать на сообщения
Вы не можете редактировать свои сообщения
Вы не можете удалять свои сообщения
Вы не можете голосовать в опросах
Вы не можете прикреплять файлы к сообщениям
Вы не можете скачивать файлы