Бешеные деньги / Неприличное везение / Повезет, так по-крупному / Outrageous Fortune (Артур Хиллер / Arthur Hiller) [1987, США, комедия, приключения, HDTV 1080i] Dub + MVO + AVO (Михалёв) + Sub Eng + Original Eng

Ответить на тему
 
Автор Сообщение

user ®

Стаж: 7 лет 7 месяцев

Сообщений: 20008

Пост Пост: #1 от 24-Мар-2014 02:05

[Цитировать]

Бешеные деньги (Неприличное везение, Повезет, так по-крупному) / Outrageous Fortune
Страна: США
Студия: Touchstone Pictures, Silver Screen Partners II, Interscope Communications
Жанр: комедия, приключения
Год выпуска: 1987
Продолжительность: 01:34:58
Перевод: Профессиональный (дублированный)
Перевод 2: Профессиональный (многоголосый закадровый)
Перевод 3: Авторский (одноголосый закадровый) А.Михалёв
Cубтитры: английские
Оригинальная аудиодорожка: английский
Режиссер: Артур Хиллер / Arthur Hiller
В ролях: Шелли Лонг, Бетт Мидлер, Питер Койот, Роберт Проски, Джон Шак, Джордж Карлин, Энтони Хилд, Джи-Ту Кумбука, Флоренс Стэнли, Джерри Зэкс, Джон ДиСанти, Дайана Беллами, Гэри Морган, Кристофер МакДоналд
Описание: Лорен и Сэнди - вечно соперничающие и ссорящиеся актрисы, чей талант состоит не столько в умении вдохновенно играть, сколько в умении притягивать к себе неприятности. Вершина их незадачливости: обе независимо друг от друга влюбились в одного и того же парня по имени Майкл. Который к тому же оказался международным шпионом и однажды исчез при странных обстоятельствах. Сам исчез, а вот свои проблемы с законом прихватить забыл! Надо ли говорить, что они достались по наследству Лорен и Сэнди, не ведающих, что стали объектом внимания спецслужб, катастрофически заблуждающихся по поводу вовлеченности наивных простушек в дела коварного Майкла...

Сэмпл
Тип релиза: HDTV 1080i
Контейнер: MKV
Видео: MPEG4 AVC Video, H264, 16:9, 1920x1080, 25.000 fps, 12492 kbps
Аудио: Russian (Dolby AC3, 2 ch, 192 kbps, 16 bits, 48.0 KHz) - дубляж
Аудио 2: Russian (Dolby AC3, 6 ch, 384 kbps, 16 bits, 48.0 KHz) - MVO
Аудио 3: Russian (Dolby AC3, 6 ch, 384 kbps, 16 bits, 48.0 KHz) - А.Михалёв
Аудио 4: English (Dolby AC3, 6 ch, 384 kbps, 16 bits, 48.0 KHz) - оригинал
Формат субтитров: softsub (SRT)

Доп. информация

Нашёл в сети два рипа HDTV этой отличной комедии в 720 и 1080 качестве. В 720 качестве тех.данные тянут только на статус сомнительно, если вообще не закроют. Но решил выложить только 1080 предварительно прикрутив к нему английские субтитры, русских не нашёл. Качество видео очень хорошее для HDTV фильма 1987 года. На усмотрение модераторов. В HD качестве этого фильма на трекере нет, также как и такого количества дорог. Прошу обратить на это внимание.

MediaInfo

Общее
Уникальный идентификатор : 225228757620668124892914149475568428170 (0xA9717B19E525A8D78B6133271CCDA48A)
Полное имя : E:\1\Outrageous.Fortune.1987.1080p.mkv
Формат : Matroska
Версия формата : Version 4 / Version 2
Размер файла : 9,15 Гбайт
Продолжительность : 1 ч. 34 м.
Режим общего битрейта : Переменный
Общий поток : 13,8 Мбит/сек
Дата кодирования : UTC 2014-03-21 19:16:11
Программа кодирования : mkvmerge v6.1.0 ('Old Devil') built on Mar 2 2013 14:32:37
Библиотека кодирования : libebml v1.3.0 + libmatroska v1.4.0
Видео
Идентификатор : 1
Формат : AVC
Формат/Информация : Advanced Video Codec
Профиль формата : Main@L4.0
Параметр CABAC формата : Да
Параметр ReFrames формата : 4 кадра
Идентификатор кодека : V_MPEG4/ISO/AVC
Продолжительность : 1 ч. 34 м.
Вид битрейта : Переменный
Битрейт : 12,2 Мбит/сек
Максимальный битрейт : 40,0 Мбит/сек
Ширина : 1920 пикселей
Высота : 1080 пикселей
Соотношение сторон : 16:9
Режим частоты кадров : Постоянный
Частота кадров : 25,000 кадров/сек
Цветовое пространство : YUV
Субдискретизация насыщенности : 4:2:0
Битовая глубина : 8 бит
Тип развёртки : Чересстрочная
Порядок развёртки : Верхнее поле первое
Бит/(Пиксели*Кадры) : 0.235
Размер потока : 8,08 Гбайт (88%)
Default : Да
Forced : Нет
Основные цвета : BT.709
Характеристики трансфера : BT.709
Коэффициенты матрицы : BT.709
Аудио #1
Идентификатор : 2
Формат : AC-3
Формат/Информация : Audio Coding 3
Расширение режима : CM (complete main)
Параметр Endianness формата : Big
Идентификатор кодека : A_AC3
Продолжительность : 1 ч. 34 м.
Вид битрейта : Постоянный
Битрейт : 192 Кбит/сек
Каналы : 2 канала
Расположение каналов : Front: L R
Частота : 48,0 КГц
Битовая глубина : 16 бит
Метод сжатия : С потерями
Размер потока : 130 Мбайт (1%)
Язык : Russian
Default : Да
Forced : Нет
Аудио #2
Идентификатор : 3
Формат : AC-3
Формат/Информация : Audio Coding 3
Расширение режима : CM (complete main)
Параметр Endianness формата : Big
Идентификатор кодека : A_AC3
Продолжительность : 1 ч. 34 м.
Вид битрейта : Постоянный
Битрейт : 384 Кбит/сек
Каналы : 6 каналов
Расположение каналов : Front: L C R, Side: L R, LFE
Частота : 48,0 КГц
Битовая глубина : 16 бит
Метод сжатия : С потерями
Размер потока : 261 Мбайт (3%)
Язык : Russian
Default : Нет
Forced : Нет
Аудио #3
Идентификатор : 4
Формат : AC-3
Формат/Информация : Audio Coding 3
Расширение режима : CM (complete main)
Параметр Endianness формата : Big
Идентификатор кодека : A_AC3
Продолжительность : 1 ч. 34 м.
Вид битрейта : Постоянный
Битрейт : 384 Кбит/сек
Каналы : 6 каналов
Расположение каналов : Front: L C R, Side: L R, LFE
Частота : 48,0 КГц
Битовая глубина : 16 бит
Метод сжатия : С потерями
Размер потока : 261 Мбайт (3%)
Язык : Russian
Default : Нет
Forced : Нет
Аудио #4
Идентификатор : 5
Формат : AC-3
Формат/Информация : Audio Coding 3
Расширение режима : CM (complete main)
Параметр Endianness формата : Big
Идентификатор кодека : A_AC3
Продолжительность : 1 ч. 34 м.
Вид битрейта : Постоянный
Битрейт : 384 Кбит/сек
Каналы : 6 каналов
Расположение каналов : Front: L C R, Side: L R, LFE
Частота : 48,0 КГц
Битовая глубина : 16 бит
Метод сжатия : С потерями
Размер потока : 261 Мбайт (3%)
Язык : English
Default : Нет
Forced : Нет
Текст
Идентификатор : 6
Формат : UTF-8
Идентификатор кодека : S_TEXT/UTF8
Идентификатор кодека/Информация : UTF-8 Plain Text
Язык : English
Default : Нет
Forced : Нет

Скриншоты

Скачать

Скачать торрент!

Как скачивать? · Что такое торрент? · Рейтинг и ограничения

Сайт не распространяет и не хранит электронные версии произведений, а лишь предоставляет доступ к создаваемому пользователями каталогу ссылок на торрент-файлы, которые содержат только списки хеш-сумм

[Профиль] [ЛС]
Показать сообщения:    
Ответить на тему

Текущее время: Сегодня 11:43

Часовой пояс: GMT + 4



Вы не можете начинать темы
Вы не можете отвечать на сообщения
Вы не можете редактировать свои сообщения
Вы не можете удалять свои сообщения
Вы не можете голосовать в опросах
Вы не можете прикреплять файлы к сообщениям
Вы не можете скачивать файлы