Запятнанная репутация / The Human Stain (Роберт Бентон / Robert Benton) [2003, США, Германия, Франция, драма, мелодрама, BDRip 1080p] Dub + DVO (DDV) + AVO (Е.Рудой) + AVO (Ю.Сербин) + Sub Rus, Eng + Original Eng

Ответить на тему
 
Автор Сообщение

user ®

Стаж: 7 лет 7 месяцев

Сообщений: 20008

Пост Пост: #1 от 24-Мар-2014 02:05

[Цитировать]

Запятнанная репутация / The Human Stain
Страна: США, Германия, Франция
Студия: Lakeshore Entertainment, Miramax Films и др.
Жанр: драма, мелодрама
Год выпуска: 2003
Продолжительность: 01:47:46
Перевод: Профессиональный (дублированный) МОСФИЛЬМ-мастер
Перевод 2: Профессиональный (двухголосый закадровый) DDV
Перевод 3: Авторский (одноголосый закадровый) Е.Рудой
Перевод 4: Авторский (одноголосый закадровый) Ю.Сербин
Cубтитры: русские, английские
Оригинальная аудиодорожка: английский
Режиссер: Роберт Бентон / Robert Benton
В ролях: Энтони Хопкинс, Николь Кидман, Эд Харрис, Гэри Синиз, Вентворт Миллер, Джасинда Бэррет, Гарри Дж. Ленникс, Кларк Грегг, Анна Дивер Смит, Лизэн Митчел, Керри Вашингтон, Филлис Ньюман
Описание: Немолодой профессор более 50 лет скрывал от своих близких страшный секрет. Случайный роман с молодой служанкой становится толчком для расследования прошлой жизни. Грязные тайны прошедших дней врываются в настоящее, сметая все на своем пути…
Альтернативное описание:Неосторожная шутка, воспринятая как расистское замечание в адрес чернокожих студентов вынуждает уважаемого профессора Колмана Силка со скандалом покинуть родной университет. Это известие становится фатальным для жены Колмана, которая умирает от сердечного приступа. Убитый горем профессор отчаянно пытается восстановить запятнанную репутацию, но знакомство с молодой уборщицей Фонией дарит ему неожиданное утешение. Поставив на кон свою репутацию, Колман безоглядно отдается новому чувству и вскоре между ним и яркой и неукротимой женщиной, чьи несчастья умножает муж-психопат вспыхивает страстная любовь. Однако их сложные отношения внезапно оказываются под угрозой когда становится ясно, что Колмана и Фонию объединяет не только страсть, но и мрачные тайны которые они так долго хранили в своей душе... Экранизация по произведению: Филип Рот «Людское клеймо».

Сэмпл 1 Сэмпл 2
Тип релиза: BDRip 1080p исх. Human.Stain.2003.1080p.Bluray.GER.AVC.Remux.HDCLUB
Контейнер: MKV
Видео: MPEG4 AVC Video, H264, 2,35:1, 1920x814, 23.976 fps, 9000 kbps
Аудио: Russian (DTS, 6 ch, 768 kbps, 24 bits, 48.0 KHz) - дубляж
Аудио 2: Russian (DTS, 6 ch, 1509 kbps, 16 bits, 48.0 KHz) - DDV
Аудио 3: Russian (DTS, 6 ch, 1509 kbps, 16 bits, 48.0 KHz) - Е.Рудой
Аудио 4: Russian (DTS, 6 ch, 1509 kbps, 16 bits, 48.0 KHz) - Ю.Сербин
Аудио 5: English (DTS, 6 ch, 1509 kbps, 16 bits, 48.0 KHz) - оригинал
Формат субтитров: softsub (SRT)

MediaInfo

Общее
Уникальный идентификатор : 238951505936209354198434431716919554225 (0xB3C462D46D9E1511AC2196B887BF30B1)
Полное имя : E:\1\The Human Stain.2003.BDRip.1080p.mkv
Формат : Matroska
Версия формата : Version 4 / Version 2
Размер файла : 11,9 Гбайт
Продолжительность : 1 ч. 47 м.
Общий поток : 15,8 Мбит/сек
Название фильма : Запятнанная репутация / The Human Stain
Дата кодирования : UTC 2014-03-23 15:38:04
Программа кодирования : mkvmerge v6.1.0 ('Old Devil') built on Mar 2 2013 14:32:37
Библиотека кодирования : libebml v1.3.0 + libmatroska v1.4.0
Видео
Идентификатор : 1
Формат : AVC
Формат/Информация : Advanced Video Codec
Профиль формата : High@L4.1
Параметр CABAC формата : Да
Параметр ReFrames формата : 4 кадра
Идентификатор кодека : V_MPEG4/ISO/AVC
Продолжительность : 1 ч. 47 м.
Битрейт : 9000 Кбит/сек
Ширина : 1920 пикселей
Высота : 814 пикселей
Соотношение сторон : 2,35:1
Режим частоты кадров : Постоянный
Частота кадров : 23,976 кадра/сек
Цветовое пространство : YUV
Субдискретизация насыщенности : 4:2:0
Битовая глубина : 8 бит
Тип развёртки : Прогрессивная
Бит/(Пиксели*Кадры) : 0.240
Размер потока : 6,54 Гбайт (55%)
Библиотека кодирования : x264 core 116 r2074 2641b9e
Настройки программы : cabac=1 / ref=4 / deblock=1:-3:-3 / analyse=0x3:0x133 / me=umh / subme=11 / psy=1 / psy_rd=1.00:0.10 / mixed_ref=1 / me_range=32 / chroma_me=1 / trellis=2 / 8x8dct=1 / cqm=0 / deadzone=21,11 / fast_pskip=0 / chroma_qp_offset=-3 / threads=3 / sliced_threads=0 / nr=0 / decimate=0 / interlaced=0 / bluray_compat=0 / constrained_intra=0 / bframes=7 / b_pyramid=2 / b_adapt=2 / b_bias=0 / direct=3 / weightb=1 / open_gop=0 / weightp=2 / keyint=250 / keyint_min=23 / scenecut=40 / intra_refresh=0 / rc=2pass / mbtree=0 / bitrate=9000 / ratetol=1.0 / qcomp=0.60 / qpmin=10 / qpmax=51 / qpstep=4 / cplxblur=20.0 / qblur=0.5 / ip_ratio=1.40 / pb_ratio=1.30 / aq=1:0.50
Язык : English
Default : Да
Forced : Нет
Аудио #1
Идентификатор : 2
Формат : DTS
Формат/Информация : Digital Theater Systems
Режим : 16
Параметр Endianness формата : Big
Идентификатор кодека : A_DTS
Продолжительность : 1 ч. 47 м.
Вид битрейта : Постоянный
Битрейт : 768 Кбит/сек
Каналы : 6 каналов
Расположение каналов : Front: L C R, Side: L R, LFE
Частота : 48,0 КГц
Битовая глубина : 24 бит
Метод сжатия : С потерями
Размер потока : 592 Мбайт (5%)
Заголовок : DUB
Язык : Russian
Default : Да
Forced : Нет
Аудио #2
Идентификатор : 3
Формат : DTS
Формат/Информация : Digital Theater Systems
Режим : 16
Параметр Endianness формата : Big
Идентификатор кодека : A_DTS
Продолжительность : 1 ч. 47 м.
Вид битрейта : Постоянный
Битрейт : 1509 Кбит/сек
Каналы : 6 каналов
Расположение каналов : Front: L C R, Side: L R, LFE
Частота : 48,0 КГц
Битовая глубина : 16 бит
Метод сжатия : С потерями
Размер потока : 1,14 Гбайт (10%)
Заголовок : DVO (DDV)
Язык : Russian
Default : Нет
Forced : Нет
Аудио #3
Идентификатор : 4
Формат : DTS
Формат/Информация : Digital Theater Systems
Режим : 16
Параметр Endianness формата : Big
Идентификатор кодека : A_DTS
Продолжительность : 1 ч. 47 м.
Вид битрейта : Постоянный
Битрейт : 1509 Кбит/сек
Каналы : 6 каналов
Расположение каналов : Front: L C R, Side: L R, LFE
Частота : 48,0 КГц
Битовая глубина : 16 бит
Метод сжатия : С потерями
Размер потока : 1,14 Гбайт (10%)
Заголовок : AVO (Евгений Рудой)
Язык : Russian
Default : Нет
Forced : Нет
Аудио #4
Идентификатор : 5
Формат : DTS
Формат/Информация : Digital Theater Systems
Режим : 16
Параметр Endianness формата : Big
Идентификатор кодека : A_DTS
Продолжительность : 1 ч. 47 м.
Вид битрейта : Постоянный
Битрейт : 1509 Кбит/сек
Каналы : 6 каналов
Расположение каналов : Front: L C R, Side: L R, LFE
Частота : 48,0 КГц
Битовая глубина : 16 бит
Метод сжатия : С потерями
Размер потока : 1,14 Гбайт (10%)
Заголовок : AVO (Юрий Сербин)
Язык : Russian
Default : Нет
Forced : Нет
Аудио #5
Идентификатор : 6
Формат : DTS
Формат/Информация : Digital Theater Systems
Режим : 16
Параметр Endianness формата : Big
Идентификатор кодека : A_DTS
Продолжительность : 1 ч. 47 м.
Вид битрейта : Постоянный
Битрейт : 1509 Кбит/сек
Каналы : 6 каналов
Расположение каналов : Front: L C R, Side: L R, LFE
Частота : 48,0 КГц
Битовая глубина : 16 бит
Метод сжатия : С потерями
Размер потока : 1,14 Гбайт (10%)
Заголовок : Original
Язык : English
Default : Нет
Forced : Нет
Текст #1
Идентификатор : 7
Формат : UTF-8
Идентификатор кодека : S_TEXT/UTF8
Идентификатор кодека/Информация : UTF-8 Plain Text
Заголовок : русский
Язык : Russian
Default : Нет
Forced : Нет
Текст #2
Идентификатор : 8
Формат : UTF-8
Идентификатор кодека : S_TEXT/UTF8
Идентификатор кодека/Информация : UTF-8 Plain Text
Заголовок : английский
Язык : English
Default : Нет
Forced : Нет

Скриншоты

Торрент перезалит 23.03.2014 в 21:30 мскЗаменён видеоряд - в предыдущем были косяки в ввиде проскока кадров. Прошу прощения за причинённые неудобства
Скачать

Скачать торрент!

Как скачивать? · Что такое торрент? · Рейтинг и ограничения

Сайт не распространяет и не хранит электронные версии произведений, а лишь предоставляет доступ к создаваемому пользователями каталогу ссылок на торрент-файлы, которые содержат только списки хеш-сумм

[Профиль] [ЛС]
Показать сообщения:    
Ответить на тему

Текущее время: Сегодня 18:03

Часовой пояс: GMT + 4



Вы не можете начинать темы
Вы не можете отвечать на сообщения
Вы не можете редактировать свои сообщения
Вы не можете удалять свои сообщения
Вы не можете голосовать в опросах
Вы не можете прикреплять файлы к сообщениям
Вы не можете скачивать файлы