Русская невеста (Геннадий Соловский) [1993, Криминальная драма, SATRip]

Ответить на тему
 
Автор Сообщение

user ®

Стаж: 7 лет 7 месяцев

Сообщений: 20008

Пост Пост: #1 от 24-Мар-2014 02:05

[Цитировать]

Русская невеста
Жанр: Криминальная драма
Год выпуска: 1993
Продолжительность: 1:42:24
Режиссёр: Геннадий Соловский
В ролях: Алла Мурина, Ксения Раппопорт, Леонид Ворон, Александр Блок, Любовь Виролайнен, Людмила Вагнер, Алексей Заливалов, Татьяна Журавлева, Владимир Максимов (V)
Описание: По мотивам драмы Геннадия Соловского «Рабыня ночи».
Русская красавица Юля, затюканная бытом и беспросветной повседневной жизнью, решает оставить своего мужа и выйти замуж за богатого иностранца. Мечта сбывается — и Юля вскоре оказывается в водовороте брачного аукциона на Западе... «Сейчас все брюзжат, ищут вокруг виноватых, а нужно дело делать, решаться на поступок. Юлия, на мой взгляд, — вот такой деятельный человек. Обретя чувство собственного достоинства, не раздумывая, она совершает шаг, который чуть не стоил ей жизни, но она отваживается на него. Я очень хочу сделать интересный фильм, который бы заставил людей задуматься о такой болезненной сегодня проблеме отъезда наших соотвечественников за рубеж». — Г.Соловский («Кинонеделя», С.-Пб, N46, 1992).
Доп. информация: Производство: Ленфильм
Сэмпл: http://multi-up.com/961439
Качество видео: SATRip
Формат видео: AVI
Видео: XviD , 704x528 (1.33:1) , 25 fps , 1874 kbps avg
Аудио: AC3 , 48 kHz , 192.00 kbps avg , 2/0 (L,R) ch

MediaInfo

Complete name Русская невеста 1993.avi
Format : AVI
Format/Info : Audio Video Interleave
File size : 1.49 GiB
Duration : 1h 42mn
Overall bit rate : 2 076 Kbps
Writing library : VirtualDub build 35390/release
Video
ID : 0
Format : MPEG-4 Visual
Format profile : Advanced Simple@L5
Format settings, BVOP : 1
Format settings, QPel : No
Format settings, GMC : No warppoints
Format settings, Matrix : Default (H.263)
Codec ID : XVID
Codec ID/Hint : XviD
Duration : 1h 42mn
Bit rate : 1 875 Kbps
Width : 704 pixels
Height : 528 pixels
Display aspect ratio : 4:3
Frame rate : 25.000 fps
Color space : YUV
Chroma subsampling : 4:2:0
Bit depth : 8 bits
Scan type : Progressive
Compression mode : Lossy
Bits/(Pixel*Frame) : 0.202
Stream size : 1.34 GiB (90%)
Writing library : XviD 64
Audio
ID : 1
Format : AC-3
Format/Info : Audio Coding 3
Mode extension : CM (complete main)
Format settings, Endianness : Big
Codec ID : 2000
Duration : 1h 42mn
Bit rate mode : Constant
Bit rate : 192 Kbps
Channel(s) : 2 channels
Channel positions : Front: L R
Sampling rate : 48.0 KHz
Bit depth : 16 bits
Compression mode : Lossy
Stream size : 141 MiB (9%)
Alignment : Aligned on interleaves
Interleave, duration : 40 ms (1.00 video frame)
Interleave, preload duration : 512 ms

Скриншот c названием фильма

Скриншоты

Скачать

Скачать торрент!

Как скачивать? · Что такое торрент? · Рейтинг и ограничения

Сайт не распространяет и не хранит электронные версии произведений, а лишь предоставляет доступ к создаваемому пользователями каталогу ссылок на торрент-файлы, которые содержат только списки хеш-сумм

[Профиль] [ЛС]
Показать сообщения:    
Ответить на тему

Текущее время: Сегодня 02:17

Часовой пояс: GMT + 4



Вы не можете начинать темы
Вы не можете отвечать на сообщения
Вы не можете редактировать свои сообщения
Вы не можете удалять свои сообщения
Вы не можете голосовать в опросах
Вы не можете прикреплять файлы к сообщениям
Вы не можете скачивать файлы