Фантазия / Fantasia (Вай Ка Фай / Wai Ka-Fai) [2004, Гонконг, комедия, DVDRip] Sub Rus

Ответить на тему
 
Автор Сообщение

user ®

Стаж: 13 лет

Сообщений: 15071

Пост Пост: #1 от 23-Мар-2014 20:40

[Цитировать]

Фантазия / Fantasia
Страна: Гонконг
Жанр: комедия
Год выпуска: 2004
Продолжительность: 01:39:55-Перевод: Субтитры (Рэйдзи)
Cубтитры: русские (вшитые)
Оригинальная аудиодорожка: Кантонский-Режиссер: Вай Ка Фай / Wai Ka-Fai
В ролях: Луис Ку, Лау Чын Вань, Фрэнсис Н, Сесилия Чун, Джордан Чань, Кристи Чун, Шарлин Чой, Джиллиан Чун-Описание: 1969 год, трое детективов из частного агентства находят старую лампу, потерев которую, вызывают волшебницу (Сесилия Чун), готовую исполнить три желания того, кто первым прикоснулся к лампе. Но вот незадача – помимо того, что девушка еще не очень хорошо освоила магию, троица не помнит, кто именно потер заветную лампу... Акира- -Релиз группы
-Качество видео: DVDRip (DVD9)
Формат видео: AVI
Видео: XviD, 720x400 (1.80:1), 23.976 fps, 1892 kbps avg, 0.27 bit/pixel
Аудио: Кантонский MPEG layer 3, 192 kbps-

MediaInfo

Format : AVI
Format/Info : Audio Video Interleave
File size : 1.46 GiB
Duration : 1h 39mn
Overall bit rate : 2 094 Kbps
Writing application : VirtualDubMod 1.5.10.3 | www.virtualdub-fr.org || (build 2550/release)
Writing library : VirtualDubMod build 2550/release
Video
ID : 0
Format : MPEG-4 Visual
Format profile : Advanced Simple@L5
Format settings, BVOP : 1
Format settings, QPel : No
Format settings, GMC : No warppoints
Format settings, Matrix : Custom
Codec ID : XVID
Codec ID/Hint : XviD
Duration : 1h 39mn
Bit rate : 1 893 Kbps
Width : 720 pixels
Height : 400 pixels
Display aspect ratio : 16:9
Frame rate : 23.976 fps
Color space : YUV
Chroma subsampling : 4:2:0
Bit depth : 8 bits
Scan type : Progressive
Compression mode : Lossy
Bits/(Pixel*Frame) : 0.274
Stream size : 1.32 GiB (90%)
Writing library : XviD 73
Audio
ID : 1
Format : MPEG Audio
Format version : Version 1
Format profile : Layer 3
Codec ID : 55
Codec ID/Hint : MP3
Duration : 1h 39mn
Bit rate mode : Constant
Bit rate : 192 Kbps
Channel(s) : 2 channels
Sampling rate : 48.0 KHz
Compression mode : Lossy
Stream size : 137 MiB (9%)
Alignment : Aligned on interleaves
Interleave, duration : 42 ms (1.00 video frame)
Interleave, preload duration : 504 ms

Скриншот с названием

Скриншоты

Скачать

Скачать торрент! Фантазия / Fantasia (Вай Ка Фай / Wai Ka-Fai) [2004, Гонконг, комедия, DVDRip] Sub Rus

Как скачивать? · Что такое торрент? · Рейтинг и ограничения

Сайт не распространяет и не хранит электронные версии произведений, а лишь предоставляет доступ к создаваемому пользователями каталогу ссылок на торрент-файлы, которые содержат только списки хеш-сумм

[Профиль] [ЛС]
Показать сообщения:    
Ответить на тему

Текущее время: Сегодня 10:56

Часовой пояс: GMT + 4



Вы не можете начинать темы
Вы не можете отвечать на сообщения
Вы не можете редактировать свои сообщения
Вы не можете удалять свои сообщения
Вы не можете голосовать в опросах
Вы не можете прикреплять файлы к сообщениям
Вы не можете скачивать файлы