Копы в юбках / The Heat (Пол Фиг / Paul Feig) [2013, США, комедия, криминал, боевик, детектив, BDRip 720p] [Theatrical Cut] Dub + Ukr Dub + Original Eng + Sub Rus, Ukr, Eng

Ответить на тему
 
Автор Сообщение

user ®

Стаж: 7 лет 7 месяцев

Сообщений: 20008

Пост Пост: #1 от 23-Мар-2014 20:40

[Цитировать]

Копы в юбках / The Heat- Страна: США
Жанр: комедия, криминал, боевик, детектив
Год выпуска: 2013
Продолжительность: 01:57:04
Перевод: Профессиональный (дублированный)
Cубтитры: русские, украинские, английские
Оригинальная аудиодорожка: английский-Режиссер: Пол Фиг / Paul Feig
В ролях: Сандра Буллок, Мелисса МакКарти, Демиан Бишир, Марлон Уайанс, Майкл Рапапорт, Томас Ф. Уилсон, Майкл МакДональд, Дэн Баккедаль, Таран Киллэм, Джейн Куртин.
Описание: Молодая девушка Сара Ашбурн выбрала себе очень нелегкую профессию — она специальный агент ФБР. Она очень ответственно подходит к выполнению любого задания и никогда не нарушает установленные правила. Однако такое отношение к работе приводит к тому, что все ее коллеги просто терпеть не могут слишком правильную сотрудницу. Однажды Саре поручают очень важное задание — найти опасного наркоторговца, который был замечен в Бостоне. Но вести это дело ей придется вместе с бостонским детективом полиции Шеннон Майлинс, которая никогда не придерживалась ни каких правил. Их совместная работа становится для Сары самым настоящим кошмаром. Однако долг превыше всего, и задание должно быть выполнено несмотря ни на что...-Качество: BDRip 720p | Формат: MKV
Аудио: 1280x534 (2.40:1), 23.976 fps, x264@L4.1 ~ 4445 kbps avg
Аудио 2: Russian 48 kHz, DTS, 3/2 (L,C,R,l,r) + LFE ch, 768.00 kbps avg | BD EUR
Аудио 3: Ukrainian 48 kHz, AC3, 3/2 (L,C,R,l,r) + LFE ch, 448.00 kbps avg | BD EUR
Аудио 4: English 48 kHz, AC3, 3/2 (L,C,R,l,r) + LFE ch, 640.00 kbps avg | Original
Формат субтитров: srt | Sample

Скриншоты

Медиаинфо

Общее
Формат : Matroska
Версия формата : Version 4 / Version 2
Размер файла : 5,16 Гбайт
Продолжительность : 1 ч. 57 м.
Общий поток : 6307 Кбит/сек
Название фильма : The Heat 2013 Theatrical Cut
Дата кодирования : UTC 2014-03-18 16:39:36
Программа кодирования : mkvmerge v6.6.0 ('The Edge Of The In Between') built on Dec 1 2013 17:55:00
Библиотека кодирования : libebml v1.3.0 + libmatroska v1.4.1
Видео
Идентификатор : 1
Формат : AVC
Формат/Информация : Advanced Video Codec
Профиль формата : High@L4.1
Параметр CABAC формата : Да
Параметр ReFrames формата : 11 кадров
Идентификатор кодека : V_MPEG4/ISO/AVC
Продолжительность : 1 ч. 57 м.
Битрейт : 4445 Кбит/сек
Ширина : 1280 пикселей
Высота : 534 пикселя
Соотношение сторон : 2,40:1
Режим частоты кадров : Постоянный
Частота кадров : 23,976 кадра/сек
Цветовое пространство : YUV
Субдискретизация насыщенности : 4:2:0
Битовая глубина : 8 бит
Тип развёртки : Прогрессивная
Бит/(Пиксели*Кадры) : 0.271
Размер потока : 3,54 Гбайт (69%)
Заголовок : BDRip 720p
Библиотека кодирования : x264 core 133 r2334 a3ac64b
Настройки программы : cabac=1 / ref=11 / deblock=1:-3:-3 / analyse=0x3:0x113 / me=umh / subme=10 / psy=1 / psy_rd=1.00:0.10 / mixed_ref=1 / me_range=32 / chroma_me=1 / trellis=2 / 8x8dct=1 / cqm=0 / deadzone=21,11 / fast_pskip=0 / chroma_qp_offset=-3 / threads=2 / lookahead_threads=1 / sliced_threads=0 / nr=0 / decimate=0 / interlaced=0 / bluray_compat=0 / constrained_intra=0 / bframes=10 / b_pyramid=2 / b_adapt=1 / b_bias=0 / direct=3 / weightb=1 / open_gop=0 / weightp=2 / keyint=240 / keyint_min=23 / scenecut=40 / intra_refresh=0 / rc_lookahead=40 / rc=2pass / mbtree=0 / bitrate=4445 / ratetol=1.0 / qcomp=0.60 / qpmin=0 / qpmax=69 / qpstep=4 / cplxblur=20.0 / qblur=0.5 / vbv_maxrate=50000 / vbv_bufsize=62500 / nal_hrd=none / ip_ratio=1.40 / pb_ratio=1.30 / aq=1:0.80
Язык : English
Default : Да
Forced : Нет
Аудио #1
Идентификатор : 2
Формат : DTS
Формат/Информация : Digital Theater Systems
Режим : 16
Параметр Endianness формата : Big
Идентификатор кодека : A_DTS
Продолжительность : 1 ч. 57 м.
Вид битрейта : Постоянный
Битрейт : 768 Кбит/сек
Каналы : 6 каналов
Расположение каналов : Front: L C R, Side: L R, LFE
Частота : 48,0 КГц
Битовая глубина : 24 бит
Метод сжатия : С потерями
Размер потока : 643 Мбайт (12%)
Заголовок : BD EUR
Язык : Russian
Default : Да
Forced : Нет
Аудио #2
Идентификатор : 3
Формат : AC-3
Формат/Информация : Audio Coding 3
Расширение режима : CM (complete main)
Параметр Endianness формата : Big
Идентификатор кодека : A_AC3
Продолжительность : 1 ч. 57 м.
Вид битрейта : Постоянный
Битрейт : 448 Кбит/сек
Каналы : 6 каналов
Расположение каналов : Front: L C R, Side: L R, LFE
Частота : 48,0 КГц
Битовая глубина : 16 бит
Метод сжатия : С потерями
Размер потока : 375 Мбайт (7%)
Заголовок : BD EUR
Язык : Ukrainian
Default : Нет
Forced : Нет
Аудио #3
Идентификатор : 4
Формат : AC-3
Формат/Информация : Audio Coding 3
Расширение режима : CM (complete main)
Параметр Endianness формата : Big
Идентификатор кодека : A_AC3
Продолжительность : 1 ч. 57 м.
Вид битрейта : Постоянный
Битрейт : 640 Кбит/сек
Каналы : 6 каналов
Расположение каналов : Front: L C R, Side: L R, LFE
Частота : 48,0 КГц
Битовая глубина : 16 бит
Метод сжатия : С потерями
Размер потока : 536 Мбайт (10%)
Заголовок : Original
Язык : English
Default : Нет
Forced : Нет
Текст #1
Идентификатор : 5
Формат : UTF-8
Идентификатор кодека : S_TEXT/UTF8
Идентификатор кодека/Информация : UTF-8 Plain Text
Заголовок : Forced
Язык : Russian
Default : Да
Forced : Нет
Текст #2
Идентификатор : 6
Формат : UTF-8
Идентификатор кодека : S_TEXT/UTF8
Идентификатор кодека/Информация : UTF-8 Plain Text
Заголовок : Full
Язык : Russian
Default : Нет
Forced : Нет
Текст #3
Идентификатор : 7
Формат : UTF-8
Идентификатор кодека : S_TEXT/UTF8
Идентификатор кодека/Информация : UTF-8 Plain Text
Заголовок : Full пepeвoд Haтaлии Гpибeшoк
Язык : Russian
Default : Нет
Forced : Нет
Текст #4
Идентификатор : 8
Формат : UTF-8
Идентификатор кодека : S_TEXT/UTF8
Идентификатор кодека/Информация : UTF-8 Plain Text
Заголовок : Full
Язык : Ukrainian
Default : Нет
Forced : Нет
Текст #5
Идентификатор : 9
Формат : UTF-8
Идентификатор кодека : S_TEXT/UTF8
Идентификатор кодека/Информация : UTF-8 Plain Text
Заголовок : Full
Язык : English
Default : Нет
Forced : Нет
Меню
00:00:00.000 : :Chapter 01
00:01:46.023 : :Chapter 02
00:05:28.453 : :Chapter 03
00:07:15.977 : :Chapter 04
00:10:48.147 : :Chapter 05
00:13:39.610 : :Chapter 06
00:16:00.668 : :Chapter 07
00:19:05.352 : :Chapter 08
00:22:38.023 : :Chapter 09
00:25:14.429 : :Chapter 10
00:29:08.288 : :Chapter 11
00:33:03.815 : :Chapter 12
00:35:23.079 : :Chapter 13
00:38:08.953 : :Chapter 14
00:43:16.052 : :Chapter 15
00:46:31.497 : :Chapter 16
00:51:31.713 : :Chapter 17
00:54:45.699 : :Chapter 18
00:59:29.691 : :Chapter 19
01:01:57.714 : :Chapter 20
01:04:19.063 : :Chapter 21
01:08:06.707 : :Chapter 22
01:14:16.285 : :Chapter 23
01:20:27.322 : :Chapter 24
01:23:38.054 : :Chapter 25
01:25:23.451 : :Chapter 26
01:27:53.893 : :Chapter 27
01:30:55.033 : :Chapter 28
01:33:49.707 : :Chapter 29
01:36:27.698 : :Chapter 30
01:41:07.144 : :Chapter 31
01:42:27.975 : :Chapter 32
01:45:39.166 : :Chapter 33
01:48:00.307 : :Chapter 34
01:50:47.307 : :Chapter 35
01:52:09.472 : :Chapter 36
Скачать

Скачать торрент!

Как скачивать? · Что такое торрент? · Рейтинг и ограничения

Сайт не распространяет и не хранит электронные версии произведений, а лишь предоставляет доступ к создаваемому пользователями каталогу ссылок на торрент-файлы, которые содержат только списки хеш-сумм

[Профиль] [ЛС]
Показать сообщения:    
Ответить на тему

Текущее время: Сегодня 06:30

Часовой пояс: GMT + 4



Вы не можете начинать темы
Вы не можете отвечать на сообщения
Вы не можете редактировать свои сообщения
Вы не можете удалять свои сообщения
Вы не можете голосовать в опросах
Вы не можете прикреплять файлы к сообщениям
Вы не можете скачивать файлы