Оз: Великий и Ужасный / Oz the Great and Powerful (Сэм Рэйми / Sam Raimi) [2013, США, фэнтези, приключения, комедия, семейный, BDRip 720p] Dub + Original Eng + Sub Rus, Eng

Ответить на тему
 
Автор Сообщение

user ®

Стаж: 7 лет 7 месяцев

Сообщений: 20008

Пост Пост: #1 от 23-Мар-2014 20:40

[Цитировать]

Оз: Великий и Ужасный / Oz the Great and Powerful- Страна: США
Жанр: фэнтези, приключения, комедия, семейный
Год выпуска: 2013
Продолжительность: 02:10:29
Перевод: Профессиональный (дублированный)
Cубтитры: русские, английские
Оригинальная аудиодорожка: английский-Режиссер: Сэм Рэйми / Sam Raimi
В ролях: Джеймс Франко, Мила Кунис, Рейчел Вайс, Мишель Уильямс, Зак Брафф, Билл Коббс, Джои Кинг, Тони Кокс, Стивен Р. Харт, Эбигейл Спенсер.
Описание: Оскар Диггс — молодой фокусник, зарабатывающий себе на жизнь не столько волшебством, сколько мошенничеством. Однажды он попадает в эпицентр сильного урагана, который переносит его в удивительное место. Оказавшись в мире с уникальной природой и невиданными существами, Оскар думает, что все это всего лишь сон, но вскоре он узнает, что попал в волшебную страну Оз. Молодой человек понимает, что здесь для него открываются огромные перспективы, ведь местные жители очень наивны. Однако, Диггс вынужден изменить свои планы после того, как он встретился с несколькими колдуньями. После этого ему становится известно, что жители этой страны уже давно ждут Великого волшебника, который, согласно древнему пророчеству, должен решить давний конфликт и вернуть мир. Никто из жителей не знает, что он всего лишь человек, а не могущественный волшебник, поэтому очень надеются на его помощь. Оскару предстоит обучиться магии, чтобы не подвести жителей Изумрудного города и всей волшебной страны...-Качество: BDRip 720p | Формат: MKV | Рип от TayTO
Видео: 1280x534 (2.40:1), 23.976 fps, x264@L4.1 ~ 4626 kbps avg
Аудио 1: Russian 48 kHz, DTS, 3/2 (L,C,R,l,r) + LFE ch, 1509.00 kbps avg | Blu-ray
Аудио 2: English 48 kHz, DTS, 3/2 (L,C,R,l,r) + LFE ch, 1509.00 kbps avg | Original
Формат субтитров: srt | Sample

Скриншоты

Медиаинфо

Общее
Формат : Matroska
Версия формата : Version 4 / Version 2
Размер файла : 7,11 Гбайт
Продолжительность : 2 ч. 10 м.
Общий поток : 7799 Кбит/сек
Название фильма : Oz the Great and Powerful 2013
Дата кодирования : UTC 2014-03-18 18:42:04
Программа кодирования : mkvmerge v6.6.0 ('The Edge Of The In Between') built on Dec 1 2013 17:55:00
Библиотека кодирования : libebml v1.3.0 + libmatroska v1.4.1
Видео
Идентификатор : 1
Формат : AVC
Формат/Информация : Advanced Video Codec
Профиль формата : High@L4.1
Параметр CABAC формата : Да
Параметр ReFrames формата : 12 кадров
Идентификатор кодека : V_MPEG4/ISO/AVC
Продолжительность : 2 ч. 10 м.
Битрейт : 4626 Кбит/сек
Ширина : 1280 пикселей
Высота : 534 пикселя
Соотношение сторон : 2,40:1
Режим частоты кадров : Постоянный
Частота кадров : 23,976 кадра/сек
Цветовое пространство : YUV
Субдискретизация насыщенности : 4:2:0
Битовая глубина : 8 бит
Тип развёртки : Прогрессивная
Бит/(Пиксели*Кадры) : 0.282
Размер потока : 4,22 Гбайт (59%)
Заголовок : BDRip 720p
Библиотека кодирования : x264 core 132 r2309 3b1f1f7
Настройки программы : cabac=1 / ref=12 / deblock=1:-3:-3 / analyse=0x3:0x133 / me=tesa / subme=11 / psy=1 / psy_rd=1.00:0.00 / mixed_ref=1 / me_range=16 / chroma_me=1 / trellis=2 / 8x8dct=1 / cqm=0 / deadzone=21,11 / fast_pskip=0 / chroma_qp_offset=-2 / threads=12 / lookahead_threads=2 / sliced_threads=0 / nr=0 / decimate=1 / interlaced=0 / bluray_compat=0 / constrained_intra=0 / bframes=7 / b_pyramid=2 / b_adapt=2 / b_bias=0 / direct=3 / weightb=1 / open_gop=0 / weightp=2 / keyint=250 / keyint_min=23 / scenecut=40 / intra_refresh=0 / rc=crf / mbtree=0 / crf=15.6 / qcomp=0.75 / qpmin=0 / qpmax=69 / qpstep=4 / ip_ratio=1.40 / pb_ratio=1.30 / aq=1:0.75
Язык : English
Default : Да
Forced : Нет
Коэффициенты матрицы : BT.709
Аудио #1
Идентификатор : 2
Формат : DTS
Формат/Информация : Digital Theater Systems
Режим : 16
Параметр Endianness формата : Big
Идентификатор кодека : A_DTS
Продолжительность : 2 ч. 10 м.
Вид битрейта : Постоянный
Битрейт : 1509 Кбит/сек
Каналы : 6 каналов
Расположение каналов : Front: L C R, Side: L R, LFE
Частота : 48,0 КГц
Битовая глубина : 24 бит
Метод сжатия : С потерями
Размер потока : 1,38 Гбайт (19%)
Заголовок : Blu-ray
Язык : Russian
Default : Да
Forced : Нет
Аудио #2
Идентификатор : 3
Формат : DTS
Формат/Информация : Digital Theater Systems
Режим : 16
Параметр Endianness формата : Big
Идентификатор кодека : A_DTS
Продолжительность : 2 ч. 10 м.
Вид битрейта : Постоянный
Битрейт : 1509 Кбит/сек
Каналы : 6 каналов
Расположение каналов : Front: L C R, Side: L R, LFE
Частота : 48,0 КГц
Битовая глубина : 24 бит
Метод сжатия : С потерями
Размер потока : 1,38 Гбайт (19%)
Заголовок : Original
Язык : English
Default : Нет
Forced : Нет
Текст #1
Идентификатор : 4
Формат : UTF-8
Идентификатор кодека : S_TEXT/UTF8
Идентификатор кодека/Информация : UTF-8 Plain Text
Заголовок : Forced
Язык : Russian
Default : Да
Forced : Нет
Текст #2
Идентификатор : 5
Формат : UTF-8
Идентификатор кодека : S_TEXT/UTF8
Идентификатор кодека/Информация : UTF-8 Plain Text
Заголовок : Full
Язык : Russian
Default : Нет
Forced : Нет
Текст #3
Идентификатор : 6
Формат : UTF-8
Идентификатор кодека : S_TEXT/UTF8
Идентификатор кодека/Информация : UTF-8 Plain Text
Заголовок : Full
Язык : English
Default : Нет
Forced : Нет
Текст #4
Идентификатор : 7
Формат : UTF-8
Идентификатор кодека : S_TEXT/UTF8
Идентификатор кодека/Информация : UTF-8 Plain Text
Заголовок : Full SDH
Язык : English
Default : Нет
Forced : Нет
Текст #5
Идентификатор : 8
Формат : UTF-8
Идентификатор кодека : S_TEXT/UTF8
Идентификатор кодека/Информация : UTF-8 Plain Text
Заголовок : Full SDH Colored
Язык : English
Default : Нет
Forced : Нет
Меню
00:00:00.000 : en:Chapter 01
00:02:37.699 : en:Chapter 02
00:06:16.959 : en:Chapter 03
00:09:57.555 : en:Chapter 04
00:11:32.691 : en:Chapter 05
00:15:20.753 : en:Chapter 06
00:17:47.191 : en:Chapter 07
00:20:29.478 : en:Chapter 08
00:24:01.982 : en:Chapter 09
00:24:49.779 : en:Chapter 10
00:27:01.661 : en:Chapter 11
00:29:37.358 : en:Chapter 12
00:32:43.419 : en:Chapter 13
00:34:30.193 : en:Chapter 14
00:37:22.657 : en:Chapter 15
00:38:57.376 : en:Chapter 16
00:40:39.145 : en:Chapter 17
00:42:09.944 : en:Chapter 18
00:42:52.444 : en:Chapter 19
00:45:33.480 : en:Chapter 20
00:47:22.839 : en:Chapter 21
00:48:32.409 : en:Chapter 22
00:53:29.831 : en:Chapter 23
00:55:22.652 : en:Chapter 24
00:57:15.932 : en:Chapter 25
00:59:10.838 : en:Chapter 26
01:02:05.263 : en:Chapter 27
01:05:33.220 : en:Chapter 28
01:06:21.102 : en:Chapter 29
01:09:55.774 : en:Chapter 30
01:12:20.836 : en:Chapter 31
01:15:37.783 : en:Chapter 32
01:18:20.320 : en:Chapter 33
01:19:47.782 : en:Chapter 34
01:21:27.882 : en:Chapter 35
01:26:16.170 : en:Chapter 36
01:28:08.783 : en:Chapter 37
01:30:33.219 : en:Chapter 38
01:34:24.116 : en:Chapter 39
01:36:57.436 : en:Chapter 40
01:37:35.975 : en:Chapter 41
01:41:30.876 : en:Chapter 42
01:42:30.394 : en:Chapter 43
01:45:51.762 : en:Chapter 44
01:48:33.423 : en:Chapter 45
01:51:23.802 : en:Chapter 46
01:54:26.317 : en:Chapter 47
01:55:54.072 : en:Chapter 48
01:57:58.404 : en:Chapter 49
01:59:34.417 : en:Chapter 50
02:02:49.570 : en:Chapter 51
02:04:32.756 : en:Chapter 52
Скачать

Скачать торрент!

Как скачивать? · Что такое торрент? · Рейтинг и ограничения

Сайт не распространяет и не хранит электронные версии произведений, а лишь предоставляет доступ к создаваемому пользователями каталогу ссылок на торрент-файлы, которые содержат только списки хеш-сумм

[Профиль] [ЛС]
Показать сообщения:    
Ответить на тему

Текущее время: Сегодня 04:10

Часовой пояс: GMT + 4



Вы не можете начинать темы
Вы не можете отвечать на сообщения
Вы не можете редактировать свои сообщения
Вы не можете удалять свои сообщения
Вы не можете голосовать в опросах
Вы не можете прикреплять файлы к сообщениям
Вы не можете скачивать файлы