Безумное свидание / Date Night (Шон Леви / Shawn Levy) [2010, США, комедия, мелодрама, криминал, BDRip 720p] [Theatrical Cut] Dub + Original Eng + Sub Rus, Ukr, Eng

Ответить на тему
 
Автор Сообщение

user ®

Стаж: 7 лет 7 месяцев

Сообщений: 20008

Пост Пост: #1 от 23-Мар-2014 20:40

[Цитировать]

Безумное свидание / Date Night- Страна: США
Жанр: комедия, мелодрама, криминал
Год выпуска: 2010
Продолжительность: 01:27:48
Перевод: Профессиональный (дублированный)
Cубтитры: русские, украинские, английские
Оригинальная аудиодорожка: английский-Режиссер: Шон Леви / Shawn Levy
В ролях: Стив Карелл, Тина Фей, Марк Уолберг, Тараджи П. Хенсон, Джимми Симпсон, Коммон, Уильям Фихтнер, Лейтон Мистер, Кристен Уиг, Марк Руффало.
Описание: Супруги Фил и Клэр Фостеры живут в Нью-Джерси, воспитывают двух очаровательных детей, однако их отношения зашли в глухой тупик, и их далеко нельзя назвать романтичными. Чтобы как-то разнообразить свою семейную жизнь, Фостеры решили отправиться на романтическое свидание и поужинать в ресторане. Однако свободных столиков не оказалось, и тогда супруги решили назваться чужими именами неявившихся Трипплхорнов, чтобы заполучить столик в ресторане. Во время трапезы к ним подошли двое мужчин и заявили, что новоявленные Трипплхорны должны их боссу кругленькую сумму денег. Приняв Фостеров за других, в настоящую погоню за супругами отправляются местные гангстеры и коррумпированные полисмены.-Качество: BDRip 720p | Формат: MKV
Видео: 1280x544 (2.35:1), 23.976 fps, x264@L4.1 ~ 5615 kbps avg
Аудио 1: Russian 48 kHz, DTS, 3/2 (L,C,R,l,r) + LFE ch, 755.00 kbps avg | R5
Аудио 2: English 48 kHz, DTS, 3/2 (L,C,R,l,r) + LFE ch, 755.00 kbps avg | Original
Формат субтитров: srt | Sample

Скриншоты

Медиаинфо

Общее
Формат : Matroska
Версия формата : Version 2
Размер файла : 4,37 Гбайт
Продолжительность : 1 ч. 27 м.
Общий поток : 7124 Кбит/сек
Название фильма : Date.Night.2010.Blu-ray.720p.x264
Дата кодирования : UTC 2010-11-03 11:52:02
Программа кодирования : mkvmerge v3.4.0 ('Rapunzel') built on May 15 2010 09:38:20
Библиотека кодирования : libebml v0.8.0 + libmatroska v0.9.0
Видео
Идентификатор : 1
Формат : AVC
Формат/Информация : Advanced Video Codec
Профиль формата : High@L4.1
Параметр CABAC формата : Да
Параметр ReFrames формата : 12 кадров
Идентификатор кодека : V_MPEG4/ISO/AVC
Продолжительность : 1 ч. 27 м.
Битрейт : 5615 Кбит/сек
Ширина : 1280 пикселей
Высота : 544 пикселя
Соотношение сторон : 2,35:1
Режим частоты кадров : Постоянный
Частота кадров : 23,976 кадра/сек
Цветовое пространство : YUV
Субдискретизация насыщенности : 4:2:0
Битовая глубина : 8 бит
Тип развёртки : Прогрессивная
Бит/(Пиксели*Кадры) : 0.336
Размер потока : 3,36 Гбайт (77%)
Библиотека кодирования : x264 core 107 r1745+311 2317302
Настройки программы : cabac=1 / ref=12 / deblock=1:-3:-3 / analyse=0x3:0x113 / me=esa / subme=10 / psy=1 / fade_compensate=0.00 / psy_rd=1.00:0.00 / mixed_ref=1 / me_range=32 / chroma_me=1 / trellis=2 / 8x8dct=1 / cqm=0 / deadzone=21,11 / fast_pskip=0 / chroma_qp_offset=-2 / threads=12 / sliced_threads=0 / nr=0 / decimate=0 / interlaced=0 / constrained_intra=0 / fgo=0 / bframes=8 / b_pyramid=2 / b_adapt=2 / b_bias=0 / direct=3 / weightb=1 / open_gop=0 / weightp=2 / keyint=250 / keyint_min=23 / scenecut=40 / intra_refresh=0 / rc_lookahead=60 / rc=2pass / mbtree=0 / bitrate=5615 / ratetol=1.0 / qcomp=0.60 / qpmin=10 / qpmax=51 / qpstep=4 / cplxblur=20.0 / qblur=0.5 / vbv_maxrate=25000 / vbv_bufsize=25000 / ip_ratio=1.40 / pb_ratio=1.30 / aq=1:0.80 / nal_hrd=none
Язык : English
Default : Да
Forced : Нет
Коэффициенты матрицы : BT.709
Аудио #1
Идентификатор : 2
Формат : DTS
Формат/Информация : Digital Theater Systems
Режим : 16
Параметр Endianness формата : Big
Идентификатор кодека : A_DTS
Продолжительность : 1 ч. 27 м.
Вид битрейта : Постоянный
Битрейт : 755 Кбит/сек
Каналы : 6 каналов
Расположение каналов : Front: L C R, Side: L R, LFE
Частота : 48,0 КГц
Битовая глубина : 24 бит
Метод сжатия : С потерями
Размер потока : 474 Мбайт (11%)
Заголовок : Dub R5
Язык : Russian
Default : Да
Forced : Нет
Аудио #2
Идентификатор : 3
Формат : DTS
Формат/Информация : Digital Theater Systems
Режим : 16
Параметр Endianness формата : Big
Идентификатор кодека : A_DTS
Продолжительность : 1 ч. 27 м.
Вид битрейта : Постоянный
Битрейт : 755 Кбит/сек
Каналы : 6 каналов
Расположение каналов : Front: L C R, Side: L R, LFE
Частота : 48,0 КГц
Битовая глубина : 24 бит
Метод сжатия : С потерями
Размер потока : 474 Мбайт (11%)
Язык : English
Default : Нет
Forced : Нет
Текст #1
Идентификатор : 4
Формат : UTF-8
Идентификатор кодека : S_TEXT/UTF8
Идентификатор кодека/Информация : UTF-8 Plain Text
Заголовок : Forced
Язык : Russian
Default : Да
Forced : Нет
Текст #2
Идентификатор : 5
Формат : UTF-8
Идентификатор кодека : S_TEXT/UTF8
Идентификатор кодека/Информация : UTF-8 Plain Text
Заголовок : Full
Язык : Russian
Default : Нет
Forced : Нет
Текст #3
Идентификатор : 6
Формат : UTF-8
Идентификатор кодека : S_TEXT/UTF8
Идентификатор кодека/Информация : UTF-8 Plain Text
Заголовок : Full
Язык : Ukrainian
Default : Нет
Forced : Нет
Текст #4
Идентификатор : 7
Формат : UTF-8
Идентификатор кодека : S_TEXT/UTF8
Идентификатор кодека/Информация : UTF-8 Plain Text
Заголовок : PSDH
Язык : English
Default : Нет
Forced : Нет
Текст #5
Идентификатор : 8
Формат : UTF-8
Идентификатор кодека : S_TEXT/UTF8
Идентификатор кодека/Информация : UTF-8 Plain Text
Заголовок : Forced
Язык : English
Default : Нет
Forced : Нет
Меню
00:00:00.000 : en:00:00:00.000
00:03:52.023 : en:00:03:52.023
00:07:24.569 : en:00:07:24.569
00:11:02.412 : en:00:11:02.412
00:13:01.656 : en:00:13:01.656
00:17:57.868 : en:00:17:57.868
00:21:51.769 : en:00:21:51.769
00:27:50.878 : en:00:27:50.878
00:30:33.999 : en:00:30:33.999
00:33:02.647 : en:00:33:02.647
00:35:43.600 : en:00:35:43.600
00:36:50.875 : en:00:36:50.875
00:41:10.885 : en:00:41:10.885
00:47:21.297 : en:00:47:21.297
00:55:19.650 : en:00:55:19.650
00:58:30.882 : en:00:58:30.882
01:03:03.571 : en:01:03:03.571
01:04:29.657 : en:01:04:29.657
01:06:37.744 : en:01:06:37.744
01:10:19.757 : en:01:10:19.757
01:15:09.380 : en:01:15:09.380
01:18:04.930 : en:01:18:04.930
01:19:49.410 : en:01:19:49.410
01:21:34.598 : en:01:21:34.598
Скачать

Скачать торрент!

Как скачивать? · Что такое торрент? · Рейтинг и ограничения

Сайт не распространяет и не хранит электронные версии произведений, а лишь предоставляет доступ к создаваемому пользователями каталогу ссылок на торрент-файлы, которые содержат только списки хеш-сумм

[Профиль] [ЛС]
Показать сообщения:    
Ответить на тему

Текущее время: Сегодня 17:43

Часовой пояс: GMT + 4



Вы не можете начинать темы
Вы не можете отвечать на сообщения
Вы не можете редактировать свои сообщения
Вы не можете удалять свои сообщения
Вы не можете голосовать в опросах
Вы не можете прикреплять файлы к сообщениям
Вы не можете скачивать файлы