Самоволка / Lionheart (Шелдон Леттич / Sheldon Lettich) [1990, США, боевик, драма, спорт, WEB-DL 720p] AVO (Гаврилов) + Original Eng

Ответить на тему
 
Автор Сообщение

user ®

Стаж: 7 лет 7 месяцев

Сообщений: 20008

Пост Пост: #1 от 23-Мар-2014 20:40

[Цитировать]

Самоволка / Lionheart Страна: США
Студия: Imperial Entertainment Corporation, Guild, Sunil
Жанр: боевик, драма, спорт
Год выпуска: 1990
Продолжительность: 01:45:02
Перевод: Авторский (одноголосый закадровый) Андрей Гаврилов
Cубтитры: Нет
Оригинальная аудиодорожка: Английский
Режиссер: Шелдон Леттич / Sheldon Lettich
В ролях: Жан-Клод Ван Дамм, Хэррисон Пэйдж, Дебора Реннард, Лиза Пелайкэн, Эшли Джонсон, Брайан Томпсон
Описание: Узнав, что его брат в Лос-Анджелесе серьезно ранен, Лайон Голтье дезертирует из французского иностранного легиона, базирующегося в отдаленном районе Северной Африки.
Скрываясь от двух боевиков-легионеров, которым дан приказ вернуть его любой ценой, Лайон против своего желания становится участником незаконных боев современных гладиаторов, дерущихся голыми руками для развлечения богатых. Ему нужны деньги, чтобы помочь семье своего брата.

Качество видео:WEB-DL 720p
Формат видео: MKV
Видео кодек: H264
Аудио кодек: AC3
Видео: 1280x688 (1.85:1), 23,976 fps, ~3978 kbps avg, 0.188 bit/pixel
Аудио 1: 48 kHz, AC3 Dolby Digital, 2/0 (L,R) ch, ~192 kbps - Гаврилов
Аудио 2: 48 kHz, AC3 Dolby Digital, 2/0 (L,R) ch, ~192 kbps - Оригинал

MediaInfo

Complete name : Samovolka.1990.WEBDL720p.mkv
Format : Matroska
Format version : Version 4 / Version 2
File size : 3.27 GiB
Duration : 1h 45mn
Overall bit rate : 4 450 Kbps
Encoded date : UTC 2014-03-22 11:53:59
Writing application : mkvmerge v6.5.0 ('Isn't she lovely') built on Oct 20 2013 12:50:05
Writing library : libebml v1.3.0 + libmatroska v1.4.1
Video
ID : 1
Format : AVC
Format/Info : Advanced Video Codec
Format profile : High@L3.1
Format settings, CABAC : No
Format settings, ReFrames : 2 frames
Codec ID : V_MPEG4/ISO/AVC
Duration : 1h 45mn
Bit rate : 3 978 Kbps
Width : 1 280 pixels
Height : 688 pixels
Display aspect ratio : 1.85:1
Frame rate mode : Constant
Frame rate : 23.976 fps
Color space : YUV
Chroma subsampling : 4:2:0
Bit depth : 8 bits
Scan type : Progressive
Bits/(Pixel*Frame) : 0.188
Stream size : 2.92 GiB (89%)
Language : English
Default : Yes
Forced : No
Color primaries : BT.709
Transfer characteristics : BT.709
Matrix coefficients : BT.709
Audio #1
ID : 2
Format : AC-3
Format/Info : Audio Coding 3
Mode extension : CM (complete main)
Format settings, Endianness : Big
Codec ID : A_AC3
Duration : 1h 45mn
Bit rate mode : Constant
Bit rate : 192 Kbps
Channel(s) : 2 channels
Channel positions : Front: L R
Sampling rate : 48.0 KHz
Bit depth : 16 bits
Compression mode : Lossy
Stream size : 144 MiB (4%)
Language : Russian
Default : Yes
Forced : No
Audio #2
ID : 3
Format : AC-3
Format/Info : Audio Coding 3
Mode extension : CM (complete main)
Format settings, Endianness : Big
Codec ID : A_AC3
Duration : 1h 45mn
Bit rate mode : Constant
Bit rate : 192 Kbps
Channel(s) : 2 channels
Channel positions : Front: L R
Sampling rate : 48.0 KHz
Bit depth : 16 bits
Compression mode : Lossy
Stream size : 144 MiB (4%)
Language : English
Default : No
Forced : No
Menu
00:00:00.000 : en:Sugar and Gasoline (Main Titles)
00:03:42.000 : en:Djibouti, North Africa
00:07:21.000 : en:The Box
00:10:26.000 : en:The Docks
00:13:18.000 : en:America
00:17:07.000 : en:Lyon the Lion
00:22:48.000 : en:The Lady
00:35:04.000 : en:L.A.
00:39:08.000 : en:His Brother's Family
00:45:15.000 : en:A Room for the Night
00:52:43.000 : en:I'll Fight
00:59:02.000 : en:A Secret Insurance Policy
01:08:05.000 : en:You Know Why We're Here!
01:12:55.000 : en:The Lady and The Legion
01:34:25.000 : en:It's Time to Go
01:41:12.000 : en:End Titles

Скриншоты

Скачать

Скачать торрент!

Как скачивать? · Что такое торрент? · Рейтинг и ограничения

Сайт не распространяет и не хранит электронные версии произведений, а лишь предоставляет доступ к создаваемому пользователями каталогу ссылок на торрент-файлы, которые содержат только списки хеш-сумм

[Профиль] [ЛС]
Показать сообщения:    
Ответить на тему

Текущее время: Сегодня 07:54

Часовой пояс: GMT + 4



Вы не можете начинать темы
Вы не можете отвечать на сообщения
Вы не можете редактировать свои сообщения
Вы не можете удалять свои сообщения
Вы не можете голосовать в опросах
Вы не можете прикреплять файлы к сообщениям
Вы не можете скачивать файлы