Один день / One Day (Лоне Шерфиг / Lone Scherfig) [2011, США, драма, мелодрама, BDRip 1080p] Dub + Ukr MVO + Original Eng + Com Eng + Sub Rus, Eng

Ответить на тему
 
Автор Сообщение

user ®

Стаж: 7 лет 7 месяцев

Сообщений: 20008

Пост Пост: #1 от 23-Мар-2014 20:40

[Цитировать]

Один день / One Day- Страна: США
Жанр: драма, мелодрама
Год выпуска: 2011
Продолжительность: 01:47:28
Перевод: Профессиональный (дублированный)
Формат субтитров: srt
Оригинальная аудиодорожка: английский
Режиссер: Лоне Шерфиг / Lone Scherfig
В ролях: Энн Хэтэуэй, Джим Стёрджесс, Том Мисон, Джоди Уиттакер, Тим Ки, Рейф Сполл, Жозефин Де Ла Буме, Патришия Кларксон, Кен Стотт, Хейда Рид.
Описание: Сюжет фильма начинает повествовать о самой важной дате для двух людей - 1988 год 15 июля. Именно в этот день познакомились Декстер и Эмми. Вместе они провели незабываемый день и потрясающую ночь. Но на утро они разъехались, пообещав друг другу навсегда остаться друзьями и каждый год не взирая ни на что встречаться 15 июля. Прошло много времени, каждый из них пережил взлеты и падания, встречи и расставания. И только одно было неизменным - ежегодные встречи 15 июля. Так они встречались год за годом. Их расставания становились все труднее и труднее. Но когда же Декстер и Эмми поймут что они созданы друг для друга...
Качество: BDRip 1080p | Контейнер: MKV | HDCLUB
Видео: 1920x816 (2.35:1), 23.976 fps, x264@L4.1 ~ 10100 kbps avg
Аудио:
  • Russian 48 kHz, DTS, 3/2 (L,C,R,l,r) + LFE ch, 1510.00 kbps avg | Blu-ray
  • Ukrainian 48 kHz, AC3, 3/2 (L,C,R,l,r) + LFE ch, 448.00 kbps avg | MVO DVD
  • English 48 kHz, DTS, 3/2 (L,C,R,l,r) + LFE ch, 1509.00 kbps avg | Original
  • English 48 kHz, AC3, 2/0 (L,R) ch, 192.00 kbps avg | Commentary with Director Lone Scherfig
Cубтитры: русские, английские | Sample

Скриншоты

Медиаинфо

Общее
Формат : Matroska
Версия формата : Version 2
Размер файла : 10,3 Гбайт
Продолжительность : 1 ч. 47 м.
Общий поток : 13,7 Мбит/сек
Название фильма : One Day (2011) - Release for HDCLUB
Дата кодирования : UTC 2011-12-18 00:21:19
Программа кодирования : mkvmerge v5.1.0 ('And so it goes') built on Dec 13 2011 00:02:23
Библиотека кодирования : libebml v1.2.3 + libmatroska v1.3.0
Видео
Идентификатор : 1
Формат : AVC
Формат/Информация : Advanced Video Codec
Профиль формата : High@L4.1
Параметр CABAC формата : Да
Параметр ReFrames формата : 5 кадров
Идентификатор кодека : V_MPEG4/ISO/AVC
Продолжительность : 1 ч. 47 м.
Битрейт : 10,1 Мбит/сек
Ширина : 1920 пикселей
Высота : 816 пикселей
Соотношение сторон : 2,35:1
Режим частоты кадров : Постоянный
Частота кадров : 23,976 кадра/сек
Цветовое пространство : YUV
Субдискретизация насыщенности : 4:2:0
Битовая глубина : 8 бит
Тип развёртки : Прогрессивная
Бит/(Пиксели*Кадры) : 0.268
Размер потока : 7,36 Гбайт (71%)
Заголовок : Release for HDCLUB
Библиотека кодирования : x264 core 116 r2074 2641b9e
Настройки программы : cabac=1 / ref=5 / deblock=1:-3:-3 / analyse=0x3:0x113 / me=umh / subme=11 / psy=1 / psy_rd=1.00:0.05 / mixed_ref=1 / me_range=48 / chroma_me=1 / trellis=2 / 8x8dct=1 / cqm=0 / deadzone=21,11 / fast_pskip=0 / chroma_qp_offset=-2 / threads=12 / sliced_threads=0 / nr=0 / decimate=1 / interlaced=0 / bluray_compat=0 / constrained_intra=0 / bframes=6 / b_pyramid=2 / b_adapt=2 / b_bias=0 / direct=3 / weightb=1 / open_gop=0 / weightp=2 / keyint=250 / keyint_min=23 / scenecut=40 / intra_refresh=0 / rc_lookahead=60 / rc=2pass / mbtree=1 / bitrate=10075 / ratetol=1.0 / qcomp=0.70 / qpmin=0 / qpmax=69 / qpstep=4 / cplxblur=20.0 / qblur=0.5 / vbv_maxrate=40000 / vbv_bufsize=30000 / nal_hrd=none / ip_ratio=1.40 / aq=2:0.90
Язык : English
Default : Да
Forced : Нет
Аудио #1
Идентификатор : 2
Формат : DTS
Формат/Информация : Digital Theater Systems
Режим : 16
Параметр Endianness формата : Big
Идентификатор кодека : A_DTS
Продолжительность : 1 ч. 47 м.
Вид битрейта : Постоянный
Битрейт : 1510 Кбит/сек
Каналы : 6 каналов
Расположение каналов : Front: L C R, Side: L R, LFE
Частота : 48,0 КГц
Битовая глубина : 16 бит
Метод сжатия : С потерями
Размер потока : 1,13 Гбайт (11%)
Заголовок : Dub (Blu-Ray) DTS 5.1 1536 kbps
Язык : Russian
Default : Да
Forced : Нет
Аудио #2
Идентификатор : 3
Формат : AC-3
Формат/Информация : Audio Coding 3
Расширение режима : CM (complete main)
Параметр Endianness формата : Big
Идентификатор кодека : A_AC3
Продолжительность : 1 ч. 47 м.
Вид битрейта : Постоянный
Битрейт : 448 Кбит/сек
Каналы : 6 каналов
Расположение каналов : Front: L C R, Side: L R, LFE
Частота : 48,0 КГц
Битовая глубина : 16 бит
Метод сжатия : С потерями
Размер потока : 344 Мбайт (3%)
Заголовок : MVO AC3 5.1 448 kbps
Язык : Ukrainian
Default : Нет
Forced : Нет
Аудио #3
Идентификатор : 4
Формат : DTS
Формат/Информация : Digital Theater Systems
Режим : 16
Параметр Endianness формата : Big
Идентификатор кодека : A_DTS
Продолжительность : 1 ч. 47 м.
Вид битрейта : Постоянный
Битрейт : 1509 Кбит/сек
Каналы : 6 каналов
Расположение каналов : Front: L C R, Side: L R, LFE
Частота : 48,0 КГц
Битовая глубина : 24 бит
Метод сжатия : С потерями
Размер потока : 1,13 Гбайт (11%)
Заголовок : DTS 5.1 1536 kbps
Язык : English
Default : Нет
Forced : Нет
Аудио #4
Идентификатор : 5
Формат : AC-3
Формат/Информация : Audio Coding 3
Профиль формата : Dolby Digital
Расширение режима : CM (complete main)
Параметр Endianness формата : Big
Идентификатор кодека : A_AC3
Продолжительность : 1 ч. 47 м.
Вид битрейта : Постоянный
Битрейт : 192 Кбит/сек
Каналы : 2 канала
Расположение каналов : Front: L R
Частота : 48,0 КГц
Битовая глубина : 16 бит
Метод сжатия : С потерями
Размер потока : 148 Мбайт (1%)
Заголовок : Commentary with Director Lone Scherfig AC3 2.0 192 kbps
Язык : English
Default : Нет
Forced : Нет
Текст #1
Идентификатор : 6
Формат : UTF-8
Идентификатор кодека : S_TEXT/UTF8
Идентификатор кодека/Информация : UTF-8 Plain Text
Язык : Russian
Default : Нет
Forced : Нет
Текст #2
Идентификатор : 7
Формат : UTF-8
Идентификатор кодека : S_TEXT/UTF8
Идентификатор кодека/Информация : UTF-8 Plain Text
Язык : English
Default : Нет
Forced : Нет
Меню
00:00:00.000 : en:Chapter 1
00:03:22.953 : en:Chapter 2
00:09:12.677 : en:Chapter 3
00:12:23.868 : en:Chapter 4
00:16:40.291 : en:Chapter 5
00:21:08.517 : en:Chapter 6
00:29:21.677 : en:Chapter 7
00:37:08.726 : en:Chapter 8
00:46:03.177 : en:Chapter 9
00:52:39.907 : en:Chapter 10
00:59:43.413 : en:Chapter 11
01:05:04.484 : en:Chapter 12
01:08:07.583 : en:Chapter 13
01:12:29.637 : en:Chapter 14
01:20:02.631 : en:Chapter 15
01:25:39.718 : en:Chapter 16
01:27:39.880 : en:Chapter 17
01:31:25.814 : en:Chapter 18
01:36:55.601 : en:Chapter 19
01:41:09.522 : en:Chapter 20
Скачать

Скачать торрент!

Как скачивать? · Что такое торрент? · Рейтинг и ограничения

Сайт не распространяет и не хранит электронные версии произведений, а лишь предоставляет доступ к создаваемому пользователями каталогу ссылок на торрент-файлы, которые содержат только списки хеш-сумм

[Профиль] [ЛС]
Показать сообщения:    
Ответить на тему

Текущее время: Сегодня 18:34

Часовой пояс: GMT + 4



Вы не можете начинать темы
Вы не можете отвечать на сообщения
Вы не можете редактировать свои сообщения
Вы не можете удалять свои сообщения
Вы не можете голосовать в опросах
Вы не можете прикреплять файлы к сообщениям
Вы не можете скачивать файлы