Королева ночи / Queen of the Night / Bameui Yowang (Ким Чже Ён / Kim Je-yeong) [2013, Южная Корея, комедия, драма, HDRip] Sub Rus

Ответить на тему
 
Автор Сообщение

user ®

Стаж: 11 лет

Сообщений: 15151

Пост Пост: #1 от 23-Мар-2014 17:30

[Цитировать]

Королева ночи / Queen of the Night / Bameui Yowang
Страна: Южная Корея
Жанр: комедия, драма
Год выпуска: 2013
Продолжительность: 01:53:18-Перевод: Субтитры (Ками)
Cубтитры: русские (вшитые)
Оригинальная аудиодорожка: Корейская-Режиссер: Ким Чже Ён / Kim Je-yeong
В ролях: Ким Мин Чжон, Чхон Чон Мён, Ким Ки Пан, И Ми До, Чжи Дэ Хан-Описание: Робкий муж Ён Су (Чхон Чон Мён) подозревает, что прошлое его идеальной красавицы жены Хи Чжу (Ким Мин Чжон) не такое уж безоблачное. Тогда он решает начать собственное расследование...- -Релиз группы
-Качество видео: HDRip
Формат видео: AVI
Видео: XviD, 720x400 (1.80:1), 23.976 fps, 785 kbps avg, 0.11 bit/pixel
Аудио: Корейский MPEG layer 3, 128 kbps-

MediaInfo

Format : AVI
Format/Info : Audio Video Interleave
File size : 748 MiB
Duration : 1h 53mn
Overall bit rate : 923 Kbps
Writing application : VirtualDubMod 1.5.10.3 | www.virtualdub-fr.org || (build 2550/release)
Writing library : VirtualDubMod build 2550/release
Video
ID : 0
Format : MPEG-4 Visual
Format profile : Advanced Simple@L5
Format settings, BVOP : 1
Format settings, QPel : No
Format settings, GMC : No warppoints
Format settings, Matrix : Custom
Codec ID : XVID
Codec ID/Hint : XviD
Duration : 1h 53mn
Bit rate : 785 Kbps
Width : 720 pixels
Height : 400 pixels
Display aspect ratio : 16:9
Frame rate : 23.976 fps
Color space : YUV
Chroma subsampling : 4:2:0
Bit depth : 8 bits
Scan type : Progressive
Compression mode : Lossy
Bits/(Pixel*Frame) : 0.114
Stream size : 637 MiB (85%)
Writing library : XviD 73
Audio
ID : 1
Format : MPEG Audio
Format version : Version 1
Format profile : Layer 3
Codec ID : 55
Codec ID/Hint : MP3
Duration : 1h 53mn
Bit rate mode : Constant
Bit rate : 128 Kbps
Channel(s) : 2 channels
Sampling rate : 44.1 KHz
Compression mode : Lossy
Stream size : 104 MiB (14%)
Alignment : Split accross interleaves
Interleave, duration : 42 ms (1.00 video frame)
Interleave, preload duration : 500 ms

Скриншот с названием

Скриншоты

Скачать

Скачать торрент! Королева ночи / Queen of the Night / Bameui Yowang (Ким Чже Ён / Kim Je-yeong) [2013, Южная Корея, комедия, драма, HDRip] Sub Rus

Как скачивать? · Что такое торрент? · Рейтинг и ограничения

Сайт не распространяет и не хранит электронные версии произведений, а лишь предоставляет доступ к создаваемому пользователями каталогу ссылок на торрент-файлы, которые содержат только списки хеш-сумм

[Профиль] [ЛС]
Показать сообщения:    
Ответить на тему

Текущее время: Сегодня 19:46

Часовой пояс: GMT + 4



Вы не можете начинать темы
Вы не можете отвечать на сообщения
Вы не можете редактировать свои сообщения
Вы не можете удалять свои сообщения
Вы не можете голосовать в опросах
Вы не можете прикреплять файлы к сообщениям
Вы не можете скачивать файлы