Увалень Томми / Tommy Boy (Питер Сигал / Peter Segal) [1995, США, комедия, BDRip 1080p] 2x MVO + DVO (Премьер-Видео) + 2x AVO (Живов, Санаев) + Original Eng + sub Eng

Ответить на тему
 
Автор Сообщение

user ®

Стаж: 7 лет 7 месяцев

Сообщений: 20008

Пост Пост: #1 от 23-Мар-2014 17:30

[Цитировать]

Увалень Томми / Tommy Boy- Год выпуска: 1995
Выпущено: США
Жанр: комедия
Продолжительность: 01:37:03
Перевод: Профессиональный (многоголосый, закадровый) iTunes Russia
+ Профессиональный (многоголосый, закадровый) СТС
+ Профессиональный (двухголосый, закадровый) Премьер-Видео
+ Авторский одноголосый Ю.Живов
+ Авторский одноголосый П.Санаев
Оригинальная звуковая дорожка: English
Субтитры: English-Режиссер: Питер Сигал / Peter Segal
В ролях: Крис Фарли, Дэвид Спейд, Брайан Деннехи, Бо Дерек, Дэн Эйкройд, Джули Уорнер, Шон МакКэнн, Зэк Гренье, Джеймс Блендик, Клинтон Тернбулл
О фильме: С грехом пополам закончив колледж, увалень Том возвращается в родной дом, где приходит конец его беззаботной жизни. Внезапная смерть отца перекладывает на плечи Тома управление заводом по производству автомобильных запчастей, а происки мачехи только добавляют проблем.-N1NT3NDO!
Релиз:
Источник: Увалень Томми / Tommy Boy (1995) BD-Remux 1080p AVC DD5.1 - HDCLUB
Формат: MKV
Видео: 1916x1080 at 23.976 fps, x264@L4.1, crf, ~19400 kbps avg
Аудио #01: Russian: 48 kHz/16-bit, AC3, 3/2 (L,C,R,l,r) + LFE ch, ~384.00 kbps avg |Многоголосый закадровый, iTunes Russia|
Аудио #02: Russian: 48 kHz/16-bit, AC3, 1/0 (C) ch, ~192.00 kbps avg |Многоголосый закадровый, СТС|
Аудио #03: Russian: 48 kHz/16-bit, AC3, 1/0 (C) ch, ~192.00 kbps avg |Двухголосый закадровый, Премьер-Видео|
Аудио #04: Russian: 48 kHz/16-bit, AC3, 3/2 (L,C,R,l,r) + LFE ch, ~384.00 kbps avg |Одноголосый закадровый, Юрий Живов|
Аудио #05: Russian: 48 kHz/16-bit, AC3, 2/0 (L,R) ch, ~192.00 kbps avg |Одноголосый закадровый, Павел Санаев|
Аудио #06: English: 48 kHz/24-bit, DTS, 3/2 (L,C,R,l,r) + LFE ch, ~1510.00 kbps avg
Аудио #07: English: 48 kHz/16-bit, AC3, 2/0 (L,R) ch, ~224.00 kbps avg |Commentary by Director Peter Segal|
Семпл-

Source vs Encode





-

mInfo


Формат : Matroska
Версия формата : Version 2
Размер файла : 15,2 Гбайт
Продолжительность : 1 ч. 37 м.
Общий поток : 22,4 Мбит/сек
Название фильма : Увалень Томми / Tommy Boy (1995)
Дата кодирования : UTC 2014-03-11 14:52:09
Программа кодирования : mkvmerge v5.8.0 ('No Sleep / Pillow') built on Sep 2 2012 15:37:04
Библиотека кодирования : libebml v1.2.3 + libmatroska v1.3.0
Attachment : Yes
Видео
Идентификатор : 1
Формат : AVC
Формат/Информация : Advanced Video Codec
Профиль формата : High@L4.1
Параметр CABAC формата : Да
Параметр ReFrames формата : 4 кадра
Идентификатор кодека : V_MPEG4/ISO/AVC
Продолжительность : 1 ч. 37 м.
Битрейт : 18,9 Мбит/сек
Ширина : 1916 пикселей
Высота : 1080 пикселей
Соотношение сторон : 16:9
Режим частоты кадров : Постоянный
Частота кадров : 23,976 кадра/сек
Цветовое пространство : YUV
Субдискретизация насыщенности : 4:2:0
Битовая глубина : 8 бит
Тип развёртки : Прогрессивная
Бит/(Пиксели*Кадры) : 0.380
Размер потока : 12,8 Гбайт (84%)
Заголовок : Release for HDCLUB [by N1NT3NDO]
Библиотека кодирования : x264 core 142 r2389+41 02cb608 tMod [8-bit@4:2:0 X86_64]
Настройки программы : cabac=1 / ref=4 / deblock=1:-3:-3 / analyse=0x3:0x133 / me=umh / subme=11 / psy=1 / fade_compensate=0.00 / psy_rd=1.05:0.00 / mixed_ref=1 / me_range=32 / chroma_me=1 / trellis=2 / 8x8dct=1 / cqm=0 / deadzone=21,11 / fast_pskip=0 / chroma_qp_offset=-2 / threads=12 / lookahead_threads=3 / sliced_threads=0 / nr=0 / decimate=1 / interlaced=0 / bluray_compat=0 / constrained_intra=0 / fgo=0 / bframes=10 / b_pyramid=2 / b_adapt=2 / b_bias=0 / direct=1 / weightb=1 / open_gop=0 / weightp=2 / keyint=240 / keyint_min=23 / scenecut=40 / intra_refresh=0 / rc_lookahead=80 / rc=crf / mbtree=0 / crf=18.0000 / qcomp=0.60 / qpmin=0:0:0 / qpmax=69:69:69 / qpstep=4 / vbv_maxrate=50000 / vbv_bufsize=62500 / crf_max=0.0 / nal_hrd=none / filler=0 / ip_ratio=1.40 / pb_ratio=1.30 / aq=2:1.00 / aq-sensitivity=10.00 / aq-factor=1.00:1.00:1.00 / aq2=0 / aq3=0
Язык : English
Default : Да
Forced : Нет
Аудио #1
Идентификатор : 2
Формат : AC-3
Формат/Информация : Audio Coding 3
Расширение режима : CM (complete main)
Параметр Endianness формата : Big
Идентификатор кодека : A_AC3
Продолжительность : 1 ч. 37 м.
Вид битрейта : Постоянный
Битрейт : 384 Кбит/сек
Каналы : 6 каналов
Расположение каналов : Front: L C R, Side: L R, LFE
Частота : 48,0 КГц
Битовая глубина : 16 бит
Метод сжатия : С потерями
Размер потока : 267 Мбайт (2%)
Заголовок : Многоголосый закадровый, iTunes Russia [48 kHz/16-bit, AC3, 3/2 (L,C,R,l,r) + LFE ch, ~384.00 kbps avg]
Язык : Russian
Default : Да
Forced : Нет
Аудио #2
Идентификатор : 3
Формат : AC-3
Формат/Информация : Audio Coding 3
Расширение режима : CM (complete main)
Параметр Endianness формата : Big
Идентификатор кодека : A_AC3
Продолжительность : 1 ч. 37 м.
Вид битрейта : Постоянный
Битрейт : 192 Кбит/сек
Каналы : 1 канал
Расположение каналов : Front: C
Частота : 48,0 КГц
Битовая глубина : 16 бит
Метод сжатия : С потерями
Размер потока : 133 Мбайт (1%)
Заголовок : Многоголосый закадровый, СТС [48 kHz/16-bit, AC3, 1/0 (C) ch, ~192.00 kbps avg]
Язык : Russian
Default : Нет
Forced : Нет
Аудио #3
Идентификатор : 4
Формат : AC-3
Формат/Информация : Audio Coding 3
Расширение режима : CM (complete main)
Параметр Endianness формата : Big
Идентификатор кодека : A_AC3
Продолжительность : 1 ч. 37 м.
Вид битрейта : Постоянный
Битрейт : 192 Кбит/сек
Каналы : 1 канал
Расположение каналов : Front: C
Частота : 48,0 КГц
Битовая глубина : 16 бит
Метод сжатия : С потерями
Размер потока : 133 Мбайт (1%)
Заголовок : Двухголосый закадровый, Премьер-Видео [48 kHz/16-bit, AC3, 1/0 (C) ch, ~192.00 kbps avg]
Язык : Russian
Default : Нет
Forced : Нет
Аудио #4
Идентификатор : 5
Формат : AC-3
Формат/Информация : Audio Coding 3
Расширение режима : CM (complete main)
Параметр Endianness формата : Big
Идентификатор кодека : A_AC3
Продолжительность : 1 ч. 37 м.
Вид битрейта : Постоянный
Битрейт : 384 Кбит/сек
Каналы : 6 каналов
Расположение каналов : Front: L C R, Side: L R, LFE
Частота : 48,0 КГц
Битовая глубина : 16 бит
Метод сжатия : С потерями
Размер потока : 267 Мбайт (2%)
Заголовок : Одноголосый закадровый, Юрий Живов [48 kHz/16-bit, AC3, 3/2 (L,C,R,l,r) + LFE ch, ~384.00 kbps avg]
Язык : Russian
Default : Нет
Forced : Нет
Аудио #5
Идентификатор : 6
Формат : AC-3
Формат/Информация : Audio Coding 3
Профиль формата : Dolby Digital
Расширение режима : CM (complete main)
Параметр Endianness формата : Big
Идентификатор кодека : A_AC3
Продолжительность : 1 ч. 37 м.
Вид битрейта : Постоянный
Битрейт : 192 Кбит/сек
Каналы : 2 канала
Расположение каналов : Front: L R
Частота : 48,0 КГц
Битовая глубина : 16 бит
Метод сжатия : С потерями
Размер потока : 133 Мбайт (1%)
Заголовок : Одноголосый закадровый, Павел Санаев [48 kHz/16-bit, AC3, 2/0 (L,R) ch, ~192.00 kbps avg]
Язык : Russian
Default : Нет
Forced : Нет
Аудио #6
Идентификатор : 7
Формат : DTS
Формат/Информация : Digital Theater Systems
Режим : 16
Параметр Endianness формата : Big
Идентификатор кодека : A_DTS
Продолжительность : 1 ч. 37 м.
Вид битрейта : Постоянный
Битрейт : 1510 Кбит/сек
Каналы : 6 каналов
Расположение каналов : Front: L C R, Side: L R, LFE
Частота : 48,0 КГц
Битовая глубина : 24 бит
Метод сжатия : С потерями
Размер потока : 1,02 Гбайт (7%)
Заголовок : Оригинал [48 kHz/24-bit, DTS, 3/2 (L,C,R,l,r) + LFE ch, ~1510.00 kbps avg]
Язык : English
Default : Нет
Forced : Нет
Аудио #7
Идентификатор : 8
Формат : AC-3
Формат/Информация : Audio Coding 3
Профиль формата : Dolby Digital
Расширение режима : CM (complete main)
Параметр Endianness формата : Big
Идентификатор кодека : A_AC3
Продолжительность : 1 ч. 37 м.
Вид битрейта : Постоянный
Битрейт : 224 Кбит/сек
Каналы : 2 канала
Расположение каналов : Front: L R
Частота : 48,0 КГц
Битовая глубина : 16 бит
Метод сжатия : С потерями
Размер потока : 156 Мбайт (1%)
Заголовок : Commentary by Director Peter Segal [48 kHz/16-bit, AC3, 2/0 (L,R) ch, ~224.00 kbps avg]
Язык : English
Default : Нет
Forced : Нет
Текст
Идентификатор : 9
Формат : UTF-8
Идентификатор кодека : S_TEXT/UTF8
Идентификатор кодека/Информация : UTF-8 Plain Text
Заголовок : English
Язык : English
Default : Нет
Forced : Нет
Меню
00:00:00.000 : :Chapter 01
00:05:28.745 : :Chapter 02
00:13:02.530 : :Chapter 03
00:15:25.840 : :Chapter 04
00:18:21.849 : :Chapter 05
00:21:12.561 : :Chapter 06
00:27:35.402 : :Chapter 07
00:30:30.286 : :Chapter 08
00:33:04.440 : :Chapter 09
00:36:42.617 : :Chapter 10
00:39:11.140 : :Chapter 11
00:41:26.609 : :Chapter 12
00:46:19.193 : :Chapter 13
00:49:16.495 : :Chapter 14
00:52:27.727 : :Chapter 15
00:55:45.383 : :Chapter 16
00:59:10.964 : :Chapter 17
01:02:14.647 : :Chapter 18
01:06:30.695 : :Chapter 19
01:10:25.470 : :Chapter 20
01:12:45.986 : :Chapter 21
01:17:36.610 : :Chapter 22
01:23:54.154 : :Chapter 23
01:30:16.911 : :Chapter 24
-
Скачать

Скачать торрент!

Как скачивать? · Что такое торрент? · Рейтинг и ограничения

Сайт не распространяет и не хранит электронные версии произведений, а лишь предоставляет доступ к создаваемому пользователями каталогу ссылок на торрент-файлы, которые содержат только списки хеш-сумм

[Профиль] [ЛС]
Показать сообщения:    
Ответить на тему

Текущее время: Сегодня 06:04

Часовой пояс: GMT + 4



Вы не можете начинать темы
Вы не можете отвечать на сообщения
Вы не можете редактировать свои сообщения
Вы не можете удалять свои сообщения
Вы не можете голосовать в опросах
Вы не можете прикреплять файлы к сообщениям
Вы не можете скачивать файлы