Кружева / Вера (Иван Мережко) [2013, мелодрама, SATRip]

Ответить на тему
 
Автор Сообщение

user ®

Стаж: 7 лет 7 месяцев

Сообщений: 20008

Пост Пост: #1 от 23-Мар-2014 03:00

[Цитировать]

Кружева / Вера
Жанр: мелодрама
Год выпуска: 2013
Продолжительность: 01:38:07
Режиссёр: Иван Мережко
В ролях: Вера Баханкова, Иван Жидков, Валерия Арланова, Андрей Карако, Инна Коляда, Алеся Пуховая, Елена Дубровская, Анатолий Голуб, Эрик Дик, Наталья Онищенко, Николай Колосов, Светлана Никифорова, Ольга Абрикосова
Описание: Вера работает швеей на заштатной фабрике города Егорьевска, но мечтает о карьере модного модельера. У неё есть талант и коллекция авторских эскизов, которые никому не интересны в родном Егорьевске. Выход один – ехать в столицу! Уверенная в своей исключительности, Вера заявляется в популярный московский Дом моды Ирины Штайф. Но там девушке из периферии готовы предложить только должность уборщицы. Вера разочарована и всё же соглашается даже на это. Позже поломойка выведет на чистую воду владелицу Дома моды, найдёт верную подругу и всё-таки покорит Москву. Но самое главное – Вера встретит в Москве настоящую любовь...
Сэмпл: http://sendfile.su/957509
Качество видео: SATRip
Формат видео: AVI
Видео: XviD, 720x400, 25.00fps, 1937 Кбит/сек, 0.269 bit/pixel
Аудио: MP3, 48000 Hz, stereo, 128 Кбит/сек

MediaInfo

Общее
Полное имя : R:\Сериалы 2014\Фильмы\Кружева (Вера).2013.XviD.SATRip.by.simka_1500 МБ.avi
Формат : AVI
Формат/Информация : Audio Video Interleave
Размер файла : 1,47 Гбайт
Продолжительность : 1 ч. 38 м.
Общий поток : 2138 Кбит/сек
Программа кодирования : VirtualDubMod 1.5.10.3 | www.virtualdub-fr.org || (build 2550/release)
Библиотека кодирования : VirtualDubMod build 2550/release
Видео
Идентификатор : 0
Формат : MPEG-4 Visual
Профиль формата : Advanced Simple@L5
Параметр BVOP формата : 1
Параметр QPel формата : Нет
Параметр GMC формата : Без точки перехода
Параметр матрицы формата : Default (MPEG)
Идентификатор кодека : XVID
Идентификатор кодека/Подсказка : XviD
Продолжительность : 1 ч. 38 м.
Битрейт : 1937 Кбит/сек
Ширина : 720 пикселей
Высота : 400 пикселей
Соотношение сторон : 16:9
Частота кадров : 25,000 кадров/сек
Цветовое пространство : YUV
Субдискретизация насыщенности : 4:2:0
Битовая глубина : 8 бит
Тип развёртки : Прогрессивная
Метод сжатия : С потерями
Бит/(Пиксели*Кадры) : 0.269
Размер потока : 1,33 Гбайт (91%)
Библиотека кодирования : XviD 1.2.1 (UTC 2008-12-04)
Аудио
Идентификатор : 1
Формат : MPEG Audio
Версия формата : Version 1
Профиль формата : Layer 3
Режим : Joint stereo
Расширение режима : MS Stereo
Идентификатор кодека : 55
Идентификатор кодека/Подсказка : MP3
Продолжительность : 1 ч. 38 м.
Вид битрейта : Постоянный
Битрейт : 192 Кбит/сек
Каналы : 2 канала
Частота : 48,0 КГц
Метод сжатия : С потерями
Размер потока : 135 Мбайт (9%)
Выравнивание : Соединение по промежуткам
Продолжительность промежутка : 40 мс. (1,00 видеокадр)
Время предзагрузки промежутка : 504 мс.
Библиотека кодирования : LAME3.99r
Настройки программы : -m j -V 4 -q 2 -lowpass 18.6 -b 192

Скриншот c названием фильма

Скриншоты






Скачать

Скачать торрент!

Как скачивать? · Что такое торрент? · Рейтинг и ограничения

Сайт не распространяет и не хранит электронные версии произведений, а лишь предоставляет доступ к создаваемому пользователями каталогу ссылок на торрент-файлы, которые содержат только списки хеш-сумм

[Профиль] [ЛС]
Показать сообщения:    
Ответить на тему

Текущее время: Сегодня 15:37

Часовой пояс: GMT + 4



Вы не можете начинать темы
Вы не можете отвечать на сообщения
Вы не можете редактировать свои сообщения
Вы не можете удалять свои сообщения
Вы не можете голосовать в опросах
Вы не можете прикреплять файлы к сообщениям
Вы не можете скачивать файлы