Хризантема для животного / Хризантема для чудовища / Chrysanthemum to the Beast / Beasts and Flowers / Give Flowers to the Beast (Чжан Литья / Zhang Lijia) [2013, Китай, криминал, комедия, HDTVRip] Sub Rus

Ответить на тему
 
Автор Сообщение

user ®

Стаж: 11 лет

Сообщений: 15151

Пост Пост: #1 от 22-Мар-2014 23:50

[Цитировать]

Хризантема для животного / Хризантема для чудовища / Chrysanthemum to the Beast / Beasts and Flowers / Give Flowers to the Beast
Страна: Китай
Жанр: криминал, комедия
Год выпуска: 2013
Продолжительность: 01:30:57-Перевод: Субтитры (Ками & Рэйдзи)
Cубтитры: русские (вшитые)
Оригинальная аудиодорожка: Китайская-Режиссер: Чжан Литья / Zhang Lijia
В ролях: Джейси Чань, Рики Чань, Ади Ан, Го Синь Лян, Н Мань Тат, Лам Суэт-Описание: Молодой патрульный Мейли (Джейси Чан) случайно вмешивается в полицейскую операцию и чтобы не сорвать ее, вынужден взять ее на себя – он должен внедриться в местную банду и собрать достаточно информации, чтобы арестовать ее главаря (Рикки Чан). Однако в дело вмешиваются чувства – Мейли влюбляется в его сестру-бунтарку (Эйди Анг). Акира- -Релиз группы
-Качество видео: HDTVRip
Формат видео: AVI
Видео: XviD, 720x304 (2.37:1), 23.976 fps, 1004 kbps avg, 0.19 bit/pixel
Аудио: Китайский MPEG layer 3, 128 kbps-

MediaInfo

Format : AVI
Format/Info : Audio Video Interleave
File size : 743 MiB
Duration : 1h 30mn
Overall bit rate : 1 142 Kbps
Writing application : VirtualDubMod 1.5.10.3 | www.virtualdub-fr.org || (build 2550/release)
Writing library : VirtualDubMod build 2550/release
Video
ID : 0
Format : MPEG-4 Visual
Format profile : Advanced Simple@L5
Format settings, BVOP : 1
Format settings, QPel : No
Format settings, GMC : No warppoints
Format settings, Matrix : Custom
Codec ID : XVID
Codec ID/Hint : XviD
Duration : 1h 30mn
Bit rate : 1 005 Kbps
Width : 720 pixels
Height : 304 pixels
Display aspect ratio : 2.35:1
Frame rate : 23.976 fps
Color space : YUV
Chroma subsampling : 4:2:0
Bit depth : 8 bits
Scan type : Progressive
Compression mode : Lossy
Bits/(Pixel*Frame) : 0.192
Stream size : 654 MiB (88%)
Writing library : XviD 73
Audio
ID : 1
Format : MPEG Audio
Format version : Version 1
Format profile : Layer 3
Codec ID : 55
Codec ID/Hint : MP3
Duration : 1h 30mn
Bit rate mode : Constant
Bit rate : 128 Kbps
Channel(s) : 2 channels
Sampling rate : 44.1 KHz
Compression mode : Lossy
Stream size : 83.3 MiB (11%)
Alignment : Split accross interleaves
Interleave, duration : 42 ms (1.00 video frame)
Interleave, preload duration : 500 ms

Скриншот с названием

Скриншоты

Скачать

Скачать торрент! Хризантема для животного / Хризантема для чудовища / Chrysanthemum to the Beast / Beasts and Flowers / Give Flowers to the Beast (Чжан Литья / Zhang Lijia) [2013, Китай, криминал, комедия, HDTVRip] Sub Rus

Как скачивать? · Что такое торрент? · Рейтинг и ограничения

Сайт не распространяет и не хранит электронные версии произведений, а лишь предоставляет доступ к создаваемому пользователями каталогу ссылок на торрент-файлы, которые содержат только списки хеш-сумм

[Профиль] [ЛС]
Показать сообщения:    
Ответить на тему

Текущее время: Сегодня 17:15

Часовой пояс: GMT + 4



Вы не можете начинать темы
Вы не можете отвечать на сообщения
Вы не можете редактировать свои сообщения
Вы не можете удалять свои сообщения
Вы не можете голосовать в опросах
Вы не можете прикреплять файлы к сообщениям
Вы не можете скачивать файлы