Три сезона / Three Seasons (Тони Буи / Tony Bui) [1999 г., Вьетнам, драма, DVDRip] DVO

Ответить на тему
 
Автор Сообщение

user ®

Стаж: 11 лет

Сообщений: 15151

Пост Пост: #1 от 22-Мар-2014 23:50

[Цитировать]

-Три сезона / Three Seasons--Год выпуска: 1999
Страна: Вьетнам
Жанр: драма-Продолжительность: 01:44:07
Перевод: Любительский (двухголосый закадровый)
Субтитры: нет--Режиссер: Тони Буи / Tony Bui--В ролях:
Нгок Хип Нгуен, Нгок Мин, Фат Триу Хонг, Дим Киу, Хан Киу, Харви Кейтель
--Описание:
Рекламные щиты, пластиковая посуда, кока — кола и прочие символы могущества западного капитализма вторгаются в дикую Азию. Вьетнам — экзотический край, где жизненные устои определяют дерзкие желания и первородные инстинкты, а в воздухе витает сладковатыйзапах крови.
Столкновение разных эпох может обернуться катастрофой как для целых поколений, так и для отдельных личностей. И, доживая свои последние минуты под натиском неоновых огней, старый мир жестоко мстит непрошенным гостям.-Фильм "Три сезона" складывается из четырех историй, объединенных единым временем действия и местом - улицами Сайгона, и движимых пятеркой героев: собирательницей лотосов Кьен, велорикшей Хаи, проституткой Лан, десятилеткой-коробейником Вуди и бывшим американским солдатом Джеймсом Хагером. Шестой, и основной, герой, хотя не представлен особо, но естественным образом пропитывает каждый кадр - современный Вьетнам. Прибывшая из глубинки Кьен хранит патриархальные ценности; Лан рассчитывает купить за свое тело счастье в сегодняшнем дне; маленький трудолюбивый упрямец Вуди символизирует будущее страны; а велосипед Хай увязывает три времени, три сезона в единое пространство несгораемой саламандры Вьетнама...
Первый полнометражный художественный фильм, снятый американцами во Вьетнаме после войны. Четыре лирические истории о том, как люди пытаются найти свое место в жизни послевоенного Вьетнама на фоне ошеломляющих съемок природы.
--Доп. информация:- - Сэмпл Рип совместим с бытовыми DVD-проигрывателями.--Качество видео: DVDRip
Формат видео: AVI
Видео: 720x384 (1.88:1), 25 fps, XviD build 73, ~1806 kbps avg, 0.26 bit/pixel
Аудио: 48 kHz, AC3 Dolby Digital, 2/0 (L,R) ch, 192 kbps-

Скриншоты



MediaInfo

General
Complete name : \Tri_Sesona_(1999).DVDRip.XviD.DVO_[All.Films][RG].avi
Format : AVI
Format/Info : Audio Video Interleave
File size : 1.46 GiB
Duration : 1h 44mn
Overall bit rate : 2 009 Kbps
Movie name : Три сезона / Three Seasons (1999) DVDRip [All.Films][RG]
Director : [
Writing application : VirtualDubMod 1.5.10.3 | www.virtualdub-fr.org || (build 2550/release)
Video
ID : 0
Format : MPEG-4 Visual
Format profile : Advanced Simple@L5
Format settings, BVOP : 2
Format settings, QPel : No
Format settings, GMC : No warppoints
Format settings, Matrix : Custom
Codec ID : XVID
Codec ID/Hint : XviD
Duration : 1h 44mn
Bit rate : 1 807 Kbps
Width : 720 pixels
Height : 384 pixels
Display aspect ratio : 1.85:1
Frame rate : 25.000 fps
Color space : YUV
Chroma subsampling : 4:2:0
Bit depth : 8 bits
Scan type : Progressive
Compression mode : Lossy
Bits/(Pixel*Frame) : 0.261
Stream size : 1.31 GiB (90%)
Writing library : XviD 73
Audio
ID : 1
Format : AC-3
Format/Info : Audio Coding 3
Mode extension : CM (complete main)
Format settings, Endianness : Big
Codec ID : 2000
Duration : 1h 44mn
Bit rate mode : Constant
Bit rate : 192 Kbps
Channel count : 2 channels
Channel positions : Front: L R
Sampling rate : 48.0 KHz
Bit depth : 16 bits
Compression mode : Lossy
Stream size : 143 MiB (10%)
Alignment : Split accross interleaves
Interleave, duration : 40 ms (1.00 video frame)
Interleave, preload duration : 500 ms
Скачать

Скачать торрент! Три сезона / Three Seasons (Тони Буи / Tony Bui) [1999 г., Вьетнам, драма, DVDRip] DVO

Как скачивать? · Что такое торрент? · Рейтинг и ограничения

Сайт не распространяет и не хранит электронные версии произведений, а лишь предоставляет доступ к создаваемому пользователями каталогу ссылок на торрент-файлы, которые содержат только списки хеш-сумм

[Профиль] [ЛС]
Показать сообщения:    
Ответить на тему

Текущее время: Сегодня 22:43

Часовой пояс: GMT + 4



Вы не можете начинать темы
Вы не можете отвечать на сообщения
Вы не можете редактировать свои сообщения
Вы не можете удалять свои сообщения
Вы не можете голосовать в опросах
Вы не можете прикреплять файлы к сообщениям
Вы не можете скачивать файлы