Без комментариев / No comment / Mudjima Family (Пак Сан Ван / Park Sang-wan) [2003, Южная Корея, драма, комедия, DVDRip] Sub Rus

Ответить на тему
 
Автор Сообщение

user ®

Стаж: 11 лет

Сообщений: 15151

Пост Пост: #1 от 22-Мар-2014 23:50

[Цитировать]

Без комментариев / No comment / Mudjima Family
Страна: Южная Корея
Жанр: драма, комедия
Год выпуска: 2003
Продолжительность: 01:39:42-Перевод: Субтитры (Ками )
Cубтитры: русские (srt, внешние)
Оригинальная аудиодорожка: Корейская-Режиссер: Пак Сан Ван / Park Sang-wan
В ролях: Чон Чжэ Ён, Ры Сын Пом, Ин Вон Хи, Щин Ха Гён-Описание: Фильм состоит из трёх историй - про бандитов-гопников, школьников и армию...- -Релиз группы
-Качество видео: DVDRip (Неизвестно)
Формат видео: AVI
Видео: XviD, 576x320 (1.80:1), 23.976 fps, 780 kbps avg, 0.18 bit/pixel
Аудио: Корейский MPEG layer 3, 192 kbps-

Пример субтитров

25
00:05:05,238 --> 00:05:06,671
Спасибо.
26
00:05:23,089 --> 00:05:25,250
Эй, подожди.
27
00:05:36,602 --> 00:05:41,198
Мы не должны дать им ускользнуть,
28
00:05:41,274 --> 00:05:45,506
догоним этих выбледосов, а потом их отпиздим.
29
00:05:45,578 --> 00:05:47,910
Брат, я сделаю это.
30
00:05:47,980 --> 00:05:49,413
Пошли меня.
31
00:05:49,482 --> 00:05:52,110
Куда ты пойдёшь, ты идиот?
32
00:06:01,627 --> 00:06:04,824
Сэр, в лифте запрещено курить.
33
00:06:14,774 --> 00:06:16,241
Возьмите лучше зажигалку.
34
00:06:33,726 --> 00:06:35,159
Босс!
35
00:06:40,199 --> 00:06:41,632
С вас 20 тысяч вон.
36
00:06:51,811 --> 00:06:52,800
А спички?
37
00:06:52,879 --> 00:06:54,403
А! Точно.
38
00:06:54,480 --> 00:06:57,142
Извините, клиент из 801 номера взял их.
39
00:07:00,987 --> 00:07:02,682
Я похож на клоуна?
40
00:07:04,290 --> 00:07:05,621
Нет.
41
00:07:07,660 --> 00:07:09,651
Принеси мне спички.
42
00:07:09,729 --> 00:07:11,629
Целый коробок.
43
00:07:15,668 --> 00:07:17,727
Ах ты, сукин сын!
44
00:07:19,205 --> 00:07:22,197
Я похож на станок для спичек?
45
00:07:22,975 --> 00:07:25,705
Это тебе не какая-нибудь там фабрика.
46
00:07:25,778 --> 00:07:28,508
Сукин сын.
47
00:07:29,549 --> 00:07:31,744
Чёрт знает что!
48
00:07:40,993 --> 00:07:43,154
Что такое?
На нас напали?
49
00:07:43,229 --> 00:07:47,325
Не знаешь, мужчина и женщина заходили в 813 номер?
50
00:07:48,801 --> 00:07:52,498
Обычно, мужчины и женщины приходят сюда вместе.
51
00:07:54,507 --> 00:07:55,599
Я был прав.
52
00:07:55,675 --> 00:07:58,701
Мы всё равно, должны пойти и проверить.
53
00:08:27,640 --> 00:08:29,437
Босс!
54
00:08:29,509 --> 00:08:34,344
Босс, как это случилось?
55
00:08:34,413 --> 00:08:35,880
Это была отвёртка.
56
00:08:35,948 --> 00:08:37,745
Отвёртка...
57
00:08:37,817 --> 00:08:39,808
Крестовая отвёртка.
58
00:08:39,886 --> 00:08:41,513
Крестовая
59
00:08:43,289 --> 00:08:46,725
Он воткнул её мне прямо в тело.
60
00:08:46,792 --> 00:08:48,919
Прямо точно в глаз!
61
00:08:49,562 --> 00:08:52,656
Босс, я отомщу за вас.
62
00:08:52,732 --> 00:08:55,826
Нет, я сделаю ему в 10 раз хуже.
63
00:08:55,902 --> 00:08:57,392
Да, босс.
64
00:08:57,470 --> 00:08:59,938
Молоток, щипцы и клещи.
65
00:09:00,006 --> 00:09:03,305
Я их всех достану и отомщу за вас.
66
00:09:03,376 --> 00:09:05,936
- Парни, собирайте инструменты!
- Есть!
67
00:09:06,012 --> 00:09:07,536
Самое время для настоящего оружия!
68
00:09:07,613 --> 00:09:08,944
Достаточно!
69
00:09:10,983 --> 00:09:12,974
Ещё не время.
70
00:09:15,922 --> 00:09:19,688
Этот ублюдок знает,
что я всё ещё жив.
71
00:09:19,759 --> 00:09:25,391
Скоро он может ко мне явиться,
чтобы укокошить меня наверняка.
72
00:09:25,464 --> 00:09:28,194
- Нет, сначала я его достану.
- Это невозможно!
73
00:09:28,267 --> 00:09:31,430
Парни, он отличается от вас.
74
00:09:31,504 --> 00:09:34,735
Босс, почему вы так говорите?
75
00:09:35,841 --> 00:09:38,776
Люди тоже меня боятся.
76
00:09:38,844 --> 00:09:42,211
Почему вы так боитесь его?
77
00:09:43,349 --> 00:09:46,910
Кто, чёрт возьми, этот ублюдок?
78
00:09:46,986 --> 00:09:48,886
Те, кто сталкивался с ним,
79
00:09:48,955 --> 00:09:51,856
не один из них не выживал.
80
00:09:53,993 --> 00:09:58,259
Он всегда таскает с собой разные виды отвёрток.

MediaInfo

Format : AVI
Format/Info : Audio Video Interleave
File size : 700 MiB
Duration : 1h 39mn
Overall bit rate : 982 Kbps
Writing application : Nandub v1.0rc2
Writing library : Nandub build 1853/release
Video
ID : 0
Format : MPEG-4 Visual
Format settings, BVOP : Yes
Format settings, QPel : No
Format settings, GMC : No warppoints
Format settings, Matrix : Default (MPEG)
Codec ID : XVID
Codec ID/Hint : XviD
Duration : 1h 39mn
Bit rate : 780 Kbps
Width : 576 pixels
Height : 320 pixels
Display aspect ratio : 16:9
Frame rate : 23.976 fps
Color space : YUV
Chroma subsampling : 4:2:0
Bit depth : 8 bits
Scan type : Progressive
Compression mode : Lossy
Bits/(Pixel*Frame) : 0.177
Stream size : 556 MiB (79%)
Audio
ID : 1
Format : AC-3
Format/Info : Audio Coding 3
Mode extension : CM (complete main)
Format settings, Endianness : Big
Codec ID : 2000
Duration : 1h 39mn
Bit rate mode : Constant
Bit rate : 192 Kbps
Channel(s) : 2 channels
Channel positions : Front: L R
Sampling rate : 48.0 KHz
Bit depth : 16 bits
Compression mode : Lossy
Delay relative to video : 431ms
Stream size : 137 MiB (20%)
Alignment : Split accross interleaves
Interleave, duration : 42 ms (1.00 video frame)
Interleave, preload duration : 500 ms

Скриншот с названием

Скриншоты

Скачать

Скачать торрент! Без комментариев / No comment / Mudjima Family (Пак Сан Ван / Park Sang-wan) [2003, Южная Корея, драма, комедия, DVDRip] Sub Rus

Как скачивать? · Что такое торрент? · Рейтинг и ограничения

Сайт не распространяет и не хранит электронные версии произведений, а лишь предоставляет доступ к создаваемому пользователями каталогу ссылок на торрент-файлы, которые содержат только списки хеш-сумм

[Профиль] [ЛС]
Показать сообщения:    
Ответить на тему

Текущее время: Сегодня 12:45

Часовой пояс: GMT + 4



Вы не можете начинать темы
Вы не можете отвечать на сообщения
Вы не можете редактировать свои сообщения
Вы не можете удалять свои сообщения
Вы не можете голосовать в опросах
Вы не можете прикреплять файлы к сообщениям
Вы не можете скачивать файлы